<?xml version="1.0" standalone="no"?>
<!DOCTYPE svg PUBLIC "-//W3C//DTD SVG 1.1//EN" "http://www.w3.org/Graphics/SVG/1.1/DTD/svg11.dtd" >
<svg xmlns="http://www.w3.org/2000/svg">
<metadata>Generated by IcoMoon</metadata>
<defs>
<font id="FlastNest-Icon" horiz-adv-x="1024">
<font-face units-per-em="1024" ascent="960" descent="-64" />
<missing-glyph horiz-adv-x="1024" />
<glyph unicode="&#x20;" horiz-adv-x="512" d="" />
<glyph unicode="&#xe900;" glyph-name="x" d="M833.962 193.962c9.014-9.018 14.083-21.248 14.083-34s-5.069-24.982-14.083-34c-9.018-9.018-21.248-14.083-34-14.083-12.755 0-24.986 5.066-34 14.083l-253.962 254.038-254.040-253.958c-9.018-9.018-21.248-14.083-34-14.083s-24.983 5.066-34 14.083c-9.018 9.018-14.084 21.248-14.084 34s5.066 24.982 14.084 34l254.040 253.958-253.96 254.041c-9.018 9.017-14.084 21.247-14.084 34s5.066 24.982 14.084 34c9.017 9.017 21.247 14.083 34 14.083s24.982-5.066 34-14.083l253.96-254.041 254.042 254.081c9.014 9.017 21.245 14.083 34 14.083 12.752 0 24.982-5.066 34-14.083 9.014-9.018 14.083-21.248 14.083-34s-5.069-24.983-14.083-34l-254.042-254.081 253.962-254.038z" />
<glyph unicode="&#xe901;" glyph-name="wrench" d="M921.882 690c-2.912 7.196-7.526 13.58-13.446 18.601s-12.97 8.533-20.547 10.232c-7.574 1.699-15.446 1.535-22.947-0.477-7.498-2.012-14.394-5.813-20.099-11.076l-155.12-143.28-50.72 10.88-11.002 50.838 143.162 155.121c5.261 5.707 9.062 12.604 11.075 20.102s2.176 15.372 0.477 22.947c-1.699 7.575-5.21 14.625-10.234 20.545-5.021 5.92-11.405 10.534-18.598 13.446-54.381 21.89-113.926 27.607-171.478 16.462-57.549-11.145-110.656-38.676-152.934-79.284-42.275-40.608-71.923-92.563-85.376-149.619s-10.138-116.783 9.549-171.999l-229.962-210.16c-0.549-0.477-1.070-0.982-1.56-1.52-26.642-27.078-41.504-63.59-41.349-101.578s15.314-74.374 42.175-101.238c26.861-26.861 63.249-42.019 101.237-42.173 37.988-0.157 74.498 14.707 101.577 41.347l1.52 1.562 210.16 229.958c55.232-19.738 114.992-23.085 172.083-9.645 57.094 13.443 109.082 43.104 149.706 85.408 40.624 42.307 68.154 95.456 79.267 153.046 11.117 57.59 5.344 117.165-16.614 171.552zM640 368c-32.438-0.096-64.438 7.469-93.398 22.080-9.35 4.714-19.984 6.24-30.285 4.349-10.298-1.894-19.693-7.101-26.755-14.829l-232.322-254.24c-9.017-9.018-21.247-14.083-34-14.083s-24.982 5.066-34 14.083c-9.017 9.018-14.083 21.248-14.083 34s5.066 24.982 14.083 34l254.2 232.278c7.728 7.066 12.938 16.461 14.829 26.758s0.365 20.934-4.349 30.282c-14.544 28.95-22.054 60.925-21.92 93.322 0.064 55.146 21.997 108.014 60.992 147.008s91.862 60.928 147.008 60.992h3.562l-102.88-111.48c-5.21-5.651-8.986-12.469-11.011-19.882s-2.243-15.204-0.63-22.718l22.64-105.402c1.942-9.034 6.451-17.318 12.986-23.853 6.538-6.534 14.819-11.043 23.856-12.986l105.398-22.64c7.514-1.613 15.306-1.395 22.717 0.63 7.414 2.026 14.234 5.802 19.885 11.008l111.478 102.842c0-1.2 0-2.362 0-3.562-0.074-55.136-22.013-107.997-61.005-146.982-38.995-38.982-91.856-60.912-146.995-60.976z" />
<glyph unicode="&#xe902;" glyph-name="warning-fill" d="M947.2 207.638l-349.802 607.481c-8.739 14.883-21.219 27.223-36.198 35.797s-31.939 13.085-49.2 13.085c-17.261 0-34.221-4.511-49.2-13.085s-27.459-20.915-36.202-35.797l-349.798-607.481c-8.411-14.394-12.843-30.768-12.843-47.44s4.432-33.043 12.843-47.44c8.629-14.973 21.087-27.379 36.094-35.949s32.025-12.989 49.306-12.81h699.598c17.267-0.166 34.269 4.262 49.261 12.832 14.992 8.566 27.437 20.966 36.061 35.926 8.422 14.39 12.87 30.758 12.883 47.43s-4.406 33.050-12.803 47.45zM480 544c0 8.486 3.373 16.624 9.373 22.627 6 6 14.141 9.373 22.627 9.373s16.627-3.373 22.627-9.373c6-6.003 9.373-14.141 9.373-22.627v-160c0-8.486-3.373-16.627-9.373-22.627-6-6.003-14.141-9.373-22.627-9.373s-16.627 3.37-22.627 9.373c-6 6-9.373 14.141-9.373 22.627v160zM512 192c-9.494 0-18.774 2.816-26.669 8.090-7.891 5.274-14.045 12.771-17.677 21.542-3.635 8.768-4.586 18.419-2.733 27.731s6.426 17.866 13.136 24.576c6.714 6.714 15.267 11.286 24.579 13.139 9.309 1.85 18.96 0.899 27.731-2.733s16.269-9.786 21.542-17.68c5.274-7.891 8.090-17.171 8.090-26.666 0-12.73-5.056-24.941-14.058-33.942s-21.213-14.058-33.942-14.058z" />
<glyph unicode="&#xe903;" glyph-name="user-switch" d="M852 262.96c-5.12 3.686-10.915 6.326-17.059 7.773-6.141 1.443-12.506 1.664-18.733 0.646s-12.192-3.254-17.552-6.579c-5.363-3.325-10.016-7.674-13.696-12.8-3.92-5.494-7.987-10.826-12.202-16-28.758 48.176-70.291 87.453-120 113.478 25.437 27.402 42.323 61.629 48.582 98.486s1.622 74.742-13.344 109.002c-14.963 34.262-39.606 63.408-70.899 83.861s-67.878 31.328-105.264 31.285c-37.386-0.043-73.946-10.999-105.194-31.524s-55.824-49.728-70.71-84.022c-14.886-34.294-19.438-72.189-13.094-109.030 6.342-36.845 23.306-71.037 48.803-98.378-49.635-25.994-91.214-65.072-120.238-112.998-40.636 49.824-66.050 110.304-73.2 174.198 9.534-8.144 21.876-12.234 34.387-11.392 12.511 0.838 24.197 6.538 32.558 15.882s12.734 21.59 12.184 34.115c-0.55 12.528-5.981 24.342-15.13 32.918l-80 80c-4.46 4.474-9.758 8.022-15.593 10.448-5.834 2.422-12.090 3.667-18.407 3.667s-12.573-1.245-18.407-3.667c-5.835-2.426-11.133-5.974-15.593-10.448l-80-80c-8.712-9.005-13.56-21.056-13.507-33.584s5.001-24.541 13.789-33.469c8.788-8.928 20.719-14.067 33.244-14.32s24.653 4.403 33.794 12.97c4.544-56.589 20.21-111.728 46.101-162.253s61.497-95.446 104.779-132.186c2.292-2.339 4.811-4.442 7.52-6.278 77.148-62.816 173.638-97.027 273.126-96.835 99.485 0.189 195.846 34.765 272.752 97.872 1.795 1.306 3.507 2.72 5.12 4.24 27.117 22.883 51.299 49.027 72 77.843 3.696 5.117 6.346 10.915 7.795 17.059 1.453 6.144 1.677 12.515 0.662 18.746s-3.248 12.198-6.573 17.568c-3.325 5.366-7.677 10.022-12.803 13.706zM512 576c18.986 0 37.549-5.629 53.334-16.179 15.789-10.547 28.093-25.542 35.357-43.082 7.267-17.542 9.168-36.845 5.466-55.469-3.706-18.621-12.848-35.728-26.275-49.152-13.424-13.427-30.531-22.57-49.152-26.275-18.624-3.702-37.926-1.802-55.469 5.466-17.539 7.264-32.534 19.568-43.082 35.357-10.55 15.786-16.179 34.349-16.179 53.334 0 25.459 10.115 49.878 28.118 67.882s42.419 28.118 67.882 28.118zM512 112c-66.931-0.080-132.346 19.946-187.76 57.478 16.909 35.472 43.517 65.427 76.746 86.4s71.722 32.102 111.014 32.102c39.293 0 77.786-11.13 111.014-32.102s59.837-50.928 76.746-86.4c-55.475-37.411-120.848-57.424-187.76-57.478zM1009.958 414.038l-80-80c-4.458-4.474-9.757-8.022-15.59-10.448-5.837-2.422-12.090-3.667-18.41-3.667-6.317 0-12.573 1.245-18.406 3.667-5.834 2.426-11.133 5.974-15.594 10.448l-80 80c-9.149 8.576-14.579 20.39-15.13 32.918-0.55 12.525 3.824 24.771 12.186 34.115s20.048 15.043 32.557 15.882c12.512 0.842 24.854-3.248 34.387-11.395-7.546 67.526-35.389 131.178-79.853 182.557-44.467 51.378-103.462 88.068-169.206 105.228s-135.146 13.986-199.050-9.106c-63.901-23.092-119.302-65.015-158.89-120.237-3.59-5.328-8.214-9.885-13.597-13.392-5.383-3.51-11.416-5.904-17.741-7.037s-12.814-0.986-19.081 0.435c-6.267 1.421-12.185 4.083-17.403 7.834s-9.63 8.51-12.974 13.997c-3.344 5.487-5.553 11.59-6.494 17.946s-0.598 12.838 1.012 19.059c1.61 6.221 4.452 12.055 8.359 17.157 51.61 71.909 124.064 126.23 207.558 155.613s173.997 32.409 259.267 8.669c85.27-23.74 161.19-73.099 217.491-141.4 56.298-68.301 90.256-152.248 97.283-240.482 9.139 8.57 21.267 13.222 33.792 12.97 12.528-0.25 24.458-5.389 33.245-14.32 8.787-8.928 13.738-20.938 13.789-33.466 0.054-12.528-4.794-24.582-13.507-33.584v0.038z" />
<glyph unicode="&#xe904;" glyph-name="user-square" d="M832 848h-640c-21.217 0-41.566-8.428-56.569-23.431s-23.431-35.351-23.431-56.569v-640c0-21.216 8.428-41.565 23.431-56.57 15.003-15.002 35.351-23.43 56.569-23.43h640c21.216 0 41.565 8.429 56.57 23.43 15.002 15.005 23.43 35.354 23.43 56.57v640c0 21.217-8.429 41.566-23.43 56.569-15.005 15.003-35.354 23.431-56.57 23.431zM816 752v-576.96c-32.451 69.197-87.616 125.197-156.32 158.678 28.918 29.158 48.56 66.224 56.448 106.525s3.667 82.035-12.125 119.942c-15.792 37.907-42.454 70.291-76.621 93.072-34.17 22.78-74.317 34.936-115.382 34.936s-81.213-12.156-115.382-34.936c-34.166-22.781-60.829-55.165-76.621-93.072-15.793-37.907-20.012-79.642-12.124-119.942s27.529-77.366 56.447-106.525c-68.704-33.482-123.87-89.482-156.32-158.678v576.96h608zM400 480c0 22.15 6.57 43.805 18.877 62.224 12.304 18.419 29.798 32.774 50.262 41.251s42.986 10.694 64.71 6.371c21.725-4.32 41.683-14.986 57.347-30.65s26.33-35.622 30.65-57.347c4.323-21.725 2.106-44.246-6.371-64.71s-22.832-37.958-41.251-50.262c-18.419-12.307-40.074-18.877-62.224-18.877-29.706 0-58.192 11.798-79.197 32.803s-32.803 49.491-32.803 79.197zM512 272c54.899 0.221 108.176-18.592 150.762-53.238 25.322-20.522 46.234-45.952 61.478-74.762h-424.48c15.245 28.81 36.157 54.24 61.478 74.762 42.586 34.646 95.862 53.459 150.762 53.238z" />
<glyph unicode="&#xe905;" glyph-name="users-fill" d="M657.878 177.482c3.149-4.829 4.938-10.419 5.171-16.179 0.234-5.757-1.091-11.475-3.837-16.544-2.746-5.066-6.806-9.299-11.76-12.25-4.95-2.95-10.608-4.509-16.374-4.509h-590.158c-5.764 0-11.421 1.558-16.373 4.509s-9.015 7.184-11.761 12.25c-2.745 5.069-4.070 10.787-3.836 16.544 0.235 5.76 2.021 11.35 5.17 16.179 45.044 69.334 111.3 122.246 188.88 150.838-42.888 28.554-75.449 70.15-92.868 118.637-17.419 48.49-18.771 101.299-3.856 150.614 14.915 49.318 45.305 92.526 86.675 123.236s91.526 47.291 143.049 47.291c51.523 0 101.677-16.581 143.050-47.291 41.37-30.709 71.76-73.918 86.675-123.236 14.915-49.315 13.562-102.125-3.856-150.614-17.421-48.486-49.981-90.083-92.87-118.637 77.581-28.592 143.837-81.504 188.88-150.838zM1009.52 178.080c-45.056 69.043-111.165 121.728-188.522 150.24 50.634 34.106 86.365 86.224 99.923 145.747 13.558 59.52 3.926 121.974-26.938 174.644s-80.64 91.599-139.194 108.864c-58.557 17.264-121.488 11.566-175.99-15.935-2.083-1.076-3.907-2.597-5.338-4.456s-2.435-4.009-2.944-6.299c-0.506-2.29-0.506-4.663 0.006-6.952s1.52-4.437 2.954-6.293c40.528-50.552 63.802-112.754 66.416-177.493 2.611-64.739-15.574-128.614-51.894-182.266-2.349-3.507-3.216-7.798-2.413-11.942 0.8-4.144 3.206-7.802 6.691-10.179 47.357-33.050 87.898-74.922 119.402-123.318 12.707-19.459 17.894-42.877 14.598-65.882-0.368-2.288-0.24-4.63 0.384-6.864 0.624-2.23 1.725-4.301 3.229-6.067 1.501-1.766 3.37-3.184 5.475-4.154 2.106-0.973 4.397-1.475 6.714-1.475h241.2c7.046-0.003 13.898 2.323 19.488 6.611s9.61 10.304 11.43 17.11c1.114 4.474 1.274 9.136 0.467 13.677s-2.56 8.861-5.146 12.682z" />
<glyph unicode="&#xe906;" glyph-name="users" d="M500.72 332.24c40.202 33.792 69.040 79.13 82.598 129.869 13.562 50.736 11.19 104.416-6.794 153.76-17.984 49.341-50.707 91.959-93.734 122.073-43.024 30.114-94.272 46.266-146.79 46.266s-103.764-16.152-146.791-46.266c-43.026-30.114-75.75-72.732-93.733-122.073-17.983-49.344-20.355-103.024-6.795-153.76 13.56-50.739 42.397-96.077 82.599-129.869-62.777-28.384-117.179-72.47-157.96-128-7.532-10.262-10.678-23.098-8.747-35.683 1.932-12.582 8.783-23.885 19.047-31.418 10.264-7.53 23.1-10.678 35.683-8.746s23.884 8.784 31.417 19.046c28.23 38.554 65.15 69.914 107.767 91.526 42.616 21.616 89.728 32.88 137.513 32.88s94.896-11.264 137.514-32.88c42.618-21.613 79.536-52.973 107.766-91.526 7.533-10.269 18.835-17.126 31.424-19.059 12.586-1.936 25.427 1.206 35.696 8.739s17.126 18.835 19.062 31.424c1.933 12.586-1.21 25.427-8.742 35.696-40.803 55.523-95.219 99.606-158 128zM176 528c0 31.645 9.384 62.579 26.965 88.893 17.581 26.311 42.57 46.818 71.806 58.928s61.408 15.278 92.445 9.105c31.037-6.174 59.546-21.412 81.92-43.789 22.378-22.376 37.616-50.884 43.789-81.921 6.176-31.037 3.005-63.21-9.104-92.445s-32.618-54.224-58.928-71.805c-26.314-17.581-57.248-26.966-88.893-26.966-42.434 0-83.131 16.858-113.137 46.864s-46.863 70.701-46.863 113.136zM1000.4 137.322c-5.082-3.734-10.848-6.432-16.973-7.936s-12.483-1.786-18.717-0.832c-6.234 0.954-12.218 3.13-17.61 6.397s-10.090 7.565-13.821 12.65c-28.298 38.48-65.235 69.786-107.837 91.389-42.598 21.606-89.677 32.915-137.443 33.011-12.73 0-24.938 5.056-33.939 14.061-9.005 9.002-14.061 21.21-14.061 33.939s5.056 24.941 14.061 33.942c9.002 9.002 21.21 14.058 33.939 14.058 22.742 0.042 45.213 4.928 65.917 14.339 20.704 9.408 39.165 23.123 54.15 40.23 14.986 17.104 26.15 37.21 32.755 58.973 6.602 21.76 8.49 44.678 5.539 67.229-2.954 22.55-10.678 44.211-22.662 63.539-11.981 19.328-27.949 35.879-46.832 48.55s-40.253 21.172-62.682 24.935c-22.429 3.763-45.398 2.7-67.386-3.115-6.141-1.776-12.573-2.308-18.922-1.565s-12.486 2.748-18.051 5.895c-5.562 3.147-10.442 7.374-14.349 12.432-3.91 5.058-6.768 10.846-8.41 17.024s-2.032 12.621-1.149 18.952c0.883 6.331 3.021 12.422 6.291 17.915 3.267 5.493 7.6 10.279 12.746 14.075 5.142 3.796 10.992 6.527 17.203 8.032 56.218 14.896 115.834 10.206 169.030-13.299s96.806-64.422 123.645-116.017c26.842-51.594 35.315-110.79 24.022-167.843-11.29-57.050-41.67-108.557-86.138-146.042 62.778-28.384 117.181-72.47 157.962-128 7.478-10.25 10.595-23.040 8.669-35.581s-8.739-23.808-18.95-31.338z" />
<glyph unicode="&#xe907;" glyph-name="upload-simple" d="M912 384v-256c0-12.73-5.056-24.941-14.058-33.942s-21.213-14.058-33.942-14.058h-704c-12.73 0-24.94 5.056-33.941 14.058s-14.059 21.213-14.059 33.942v256c0 12.73 5.057 24.938 14.059 33.939s21.211 14.061 33.941 14.061c12.73 0 24.94-5.059 33.941-14.061s14.059-21.21 14.059-33.939v-208h608v208c0 12.73 5.056 24.938 14.058 33.939s21.213 14.061 33.942 14.061c12.73 0 24.941-5.059 33.942-14.061s14.058-21.21 14.058-33.939zM385.958 638.038l78.042 77.961v-331.999c0-12.73 5.056-24.941 14.058-33.942s21.213-14.058 33.942-14.058c12.73 0 24.941 5.056 33.942 14.058s14.058 21.213 14.058 33.942v331.999l78.038-78.079c4.467-4.467 9.766-8.006 15.6-10.422 5.834-2.419 12.086-3.661 18.4-3.661 6.317 0 12.57 1.242 18.403 3.661 5.834 2.416 11.133 5.955 15.597 10.422 4.467 4.464 8.010 9.765 10.426 15.599s3.661 12.086 3.661 18.401c0 6.314-1.245 12.567-3.661 18.401s-5.958 11.134-10.426 15.599l-160 160c-4.458 4.475-9.757 8.025-15.59 10.448-5.837 2.423-12.090 3.67-18.41 3.67-6.317 0-12.573-1.247-18.406-3.67s-11.133-5.973-15.59-10.448l-160.002-160c-4.465-4.465-8.007-9.766-10.423-15.599s-3.66-12.086-3.66-18.401c0-12.753 5.066-24.983 14.083-33.999 9.016-9.018 21.246-14.083 34.002-14.083 12.752 0 24.982 5.066 34 14.083l-0.083 0.118z" />
<glyph unicode="&#xe908;" glyph-name="trash" d="M864 768h-144v48c0 29.704-11.798 58.192-32.803 79.196s-49.491 32.804-79.197 32.804h-192c-29.706 0-58.192-11.8-79.197-32.804-21.003-21.004-32.803-49.492-32.803-79.196v-48h-144c-12.73 0-24.94-5.057-33.941-14.059s-14.059-21.211-14.059-33.941c0-12.73 5.057-24.94 14.059-33.941s21.211-14.059 33.941-14.059h16v-544c0-21.216 8.428-41.565 23.431-56.57 15.003-15.002 35.351-23.43 56.569-23.43h512c21.216 0 41.565 8.429 56.57 23.43 15.002 15.005 23.43 35.354 23.43 56.57v544h16c12.73 0 24.941 5.057 33.942 14.059s14.058 21.211 14.058 33.941c0 12.73-5.056 24.94-14.058 33.941s-21.213 14.059-33.942 14.059zM400 816c0 4.244 1.686 8.313 4.685 11.314 3.002 3.001 7.072 4.686 11.315 4.686h192c4.243 0 8.314-1.686 11.315-4.686 2.998-3 4.685-7.070 4.685-11.314v-48h-224v48zM752 144h-480v528h480v-528zM464 544v-256c0-12.73-5.056-24.941-14.058-33.942s-21.213-14.058-33.942-14.058c-12.73 0-24.941 5.056-33.942 14.058s-14.058 21.213-14.058 33.942v256c0 12.73 5.056 24.941 14.058 33.942s21.213 14.058 33.942 14.058c12.73 0 24.941-5.056 33.942-14.058s14.058-21.213 14.058-33.942zM656 544v-256c0-12.73-5.056-24.941-14.058-33.942s-21.213-14.058-33.942-14.058c-12.73 0-24.941 5.056-33.942 14.058s-14.058 21.213-14.058 33.942v256c0 12.73 5.056 24.941 14.058 33.942s21.213 14.058 33.942 14.058c12.73 0 24.941-5.056 33.942-14.058s14.058-21.213 14.058-33.942z" />
<glyph unicode="&#xe909;" glyph-name="text-underline" d="M800 64c0-8.486-3.373-16.627-9.373-22.627s-14.141-9.373-22.627-9.373h-512c-8.487 0-16.626 3.373-22.628 9.373s-9.372 14.141-9.372 22.627c0 8.486 3.372 16.627 9.372 22.627s14.14 9.373 22.628 9.373h512c8.486 0 16.627-3.373 22.627-9.373s9.373-14.141 9.373-22.627zM512 160c67.872 0.074 132.944 27.069 180.938 75.062s74.989 113.066 75.062 180.938v320c0 8.487-3.373 16.626-9.373 22.628s-14.141 9.372-22.627 9.372c-8.486 0-16.627-3.372-22.627-9.372s-9.373-14.14-9.373-22.628v-320c0-50.922-20.227-99.757-56.237-135.763-36.006-36.010-84.842-56.237-135.763-56.237s-99.757 20.227-135.763 56.237c-36.010 36.006-56.237 84.842-56.237 135.763v320c0 8.487-3.372 16.626-9.372 22.628s-14.14 9.372-22.628 9.372c-8.487 0-16.626-3.372-22.628-9.372s-9.372-14.14-9.372-22.628v-320c0.074-67.872 27.069-132.944 75.062-180.938s113.066-74.989 180.938-75.062z" />
<glyph unicode="&#xe90a;" glyph-name="text-italic" d="M800 736c0-8.487-3.373-16.626-9.373-22.628s-14.141-9.372-22.627-9.372h-136.918l-170.682-512h115.6c8.486 0 16.627-3.373 22.627-9.373s9.373-14.141 9.373-22.627c0-8.486-3.373-16.627-9.373-22.627s-14.141-9.373-22.627-9.373h-320c-8.487 0-16.626 3.373-22.628 9.373s-9.372 14.141-9.372 22.627c0 8.486 3.372 16.627 9.372 22.627s14.14 9.373 22.628 9.373h136.922l170.678 512h-115.6c-8.486 0-16.627 3.372-22.627 9.372s-9.373 14.14-9.373 22.628c0 8.487 3.373 16.626 9.373 22.628s14.141 9.372 22.627 9.372h320c8.486 0 16.627-3.372 22.627-9.372s9.373-14.14 9.373-22.628z" />
<glyph unicode="&#xe90b;" glyph-name="text-b" d="M713.92 497.2c25.277 24.33 42.704 55.661 50.045 89.968 7.344 34.307 4.266 70.024-8.838 102.569s-35.635 60.43-64.701 80.077c-29.066 19.647-63.341 30.159-98.426 30.186h-272c-8.487 0-16.626-3.372-22.628-9.372s-9.372-14.14-9.372-22.628v-608c0-8.486 3.372-16.627 9.372-22.627s14.14-9.373 22.628-9.373h320c44.378 0 87.389 15.373 121.712 43.507 34.32 28.131 57.84 67.283 66.55 110.8 8.714 43.514 2.083 88.704-18.765 127.882-20.845 39.178-54.621 69.926-95.578 87.011zM352 736h240c29.706 0 58.192-11.8 79.197-32.804s32.803-49.492 32.803-79.196c0-29.706-11.798-58.192-32.803-79.197s-49.491-32.803-79.197-32.803h-240v224zM640 192h-288v256h288c33.949 0 66.506-13.485 90.509-37.491 24.006-24.003 37.491-56.56 37.491-90.509s-13.485-66.506-37.491-90.509c-24.003-24.006-56.56-37.491-90.509-37.491z" />
<glyph unicode="&#xe90c;" glyph-name="text-align-right" d="M128 704c0 8.487 3.372 16.626 9.372 22.628s14.14 9.372 22.628 9.372h704c8.486 0 16.627-3.372 22.627-9.372s9.373-14.14 9.373-22.628c0-8.487-3.373-16.626-9.373-22.628s-14.141-9.372-22.627-9.372h-704c-8.487 0-16.626 3.372-22.628 9.372s-9.372 14.14-9.372 22.628zM864 576h-512c-8.486 0-16.627-3.373-22.627-9.373s-9.373-14.141-9.373-22.627c0-8.486 3.373-16.627 9.373-22.627s14.141-9.373 22.627-9.373h512c8.486 0 16.627 3.373 22.627 9.373s9.373 14.141 9.373 22.627c0 8.486-3.373 16.627-9.373 22.627s-14.141 9.373-22.627 9.373zM864 416h-704c-8.487 0-16.626-3.373-22.628-9.373s-9.372-14.141-9.372-22.627c0-8.486 3.372-16.627 9.372-22.627s14.14-9.373 22.628-9.373h704c8.486 0 16.627 3.373 22.627 9.373s9.373 14.141 9.373 22.627c0 8.486-3.373 16.627-9.373 22.627s-14.141 9.373-22.627 9.373zM864 256h-512c-8.486 0-16.627-3.373-22.627-9.373s-9.373-14.141-9.373-22.627c0-8.486 3.373-16.627 9.373-22.627s14.141-9.373 22.627-9.373h512c8.486 0 16.627 3.373 22.627 9.373s9.373 14.141 9.373 22.627c0 8.486-3.373 16.627-9.373 22.627s-14.141 9.373-22.627 9.373z" />
<glyph unicode="&#xe90d;" glyph-name="text-align-left" d="M128 704c0 8.487 3.372 16.626 9.372 22.628s14.14 9.372 22.628 9.372h704c8.486 0 16.627-3.372 22.627-9.372s9.373-14.14 9.373-22.628c0-8.487-3.373-16.626-9.373-22.628s-14.141-9.372-22.627-9.372h-704c-8.487 0-16.626 3.372-22.628 9.372s-9.372 14.14-9.372 22.628zM160 512h512c8.486 0 16.627 3.373 22.627 9.373s9.373 14.141 9.373 22.627c0 8.486-3.373 16.627-9.373 22.627s-14.141 9.373-22.627 9.373h-512c-8.487 0-16.626-3.373-22.628-9.373s-9.372-14.141-9.372-22.627c0-8.486 3.372-16.627 9.372-22.627s14.14-9.373 22.628-9.373zM864 416h-704c-8.487 0-16.626-3.373-22.628-9.373s-9.372-14.141-9.372-22.627c0-8.486 3.372-16.627 9.372-22.627s14.14-9.373 22.628-9.373h704c8.486 0 16.627 3.373 22.627 9.373s9.373 14.141 9.373 22.627c0 8.486-3.373 16.627-9.373 22.627s-14.141 9.373-22.627 9.373zM672 256h-512c-8.487 0-16.626-3.373-22.628-9.373s-9.372-14.141-9.372-22.627c0-8.486 3.372-16.627 9.372-22.627s14.14-9.373 22.628-9.373h512c8.486 0 16.627 3.373 22.627 9.373s9.373 14.141 9.373 22.627c0 8.486-3.373 16.627-9.373 22.627s-14.141 9.373-22.627 9.373z" />
<glyph unicode="&#xe90e;" glyph-name="text-align-center" d="M128 704c0 8.487 3.372 16.626 9.372 22.628s14.14 9.372 22.628 9.372h704c8.486 0 16.627-3.372 22.627-9.372s9.373-14.14 9.373-22.628c0-8.487-3.373-16.626-9.373-22.628s-14.141-9.372-22.627-9.372h-704c-8.487 0-16.626 3.372-22.628 9.372s-9.372 14.14-9.372 22.628zM256 576c-8.487 0-16.626-3.373-22.628-9.373s-9.372-14.141-9.372-22.627c0-8.486 3.372-16.627 9.372-22.627s14.14-9.373 22.628-9.373h512c8.486 0 16.627 3.373 22.627 9.373s9.373 14.141 9.373 22.627c0 8.486-3.373 16.627-9.373 22.627s-14.141 9.373-22.627 9.373h-512zM864 416h-704c-8.487 0-16.626-3.373-22.628-9.373s-9.372-14.141-9.372-22.627c0-8.486 3.372-16.627 9.372-22.627s14.14-9.373 22.628-9.373h704c8.486 0 16.627 3.373 22.627 9.373s9.373 14.141 9.373 22.627c0 8.486-3.373 16.627-9.373 22.627s-14.141 9.373-22.627 9.373zM768 256h-512c-8.487 0-16.626-3.373-22.628-9.373s-9.372-14.141-9.372-22.627c0-8.486 3.372-16.627 9.372-22.627s14.14-9.373 22.628-9.373h512c8.486 0 16.627 3.373 22.627 9.373s9.373 14.141 9.373 22.627c0 8.486-3.373 16.627-9.373 22.627s-14.141 9.373-22.627 9.373z" />
<glyph unicode="&#xe90f;" glyph-name="suitcase-simple-duotone" d="M864 736h-160v32c0 25.461-10.115 49.879-28.118 67.882s-42.422 28.118-67.882 28.118h-192c-25.459 0-49.878-10.114-67.882-28.118s-28.118-42.421-28.118-67.882v-32h-160c-16.974 0-33.252-6.743-45.255-18.745s-18.745-28.281-18.745-45.255v-512c0-16.973 6.743-33.251 18.745-45.254s28.281-18.746 45.255-18.746h704c16.973 0 33.251 6.742 45.254 18.746s18.746 28.282 18.746 45.254v512c0 16.974-6.742 33.252-18.746 45.255s-28.282 18.745-45.254 18.745zM384 768c0 8.487 3.373 16.626 9.373 22.628s14.141 9.372 22.627 9.372h192c8.486 0 16.627-3.372 22.627-9.372s9.373-14.14 9.373-22.628v-32h-256v32zM864 672v-288h-704v288h704z" />
<glyph unicode="&#xe910;" glyph-name="stack-plus" d="M960 160c0-12.733-5.056-24.941-14.058-33.942s-21.213-14.058-33.942-14.058h-32v-32c0-12.733-5.056-24.941-14.058-33.942s-21.213-14.058-33.942-14.058c-12.73 0-24.941 5.056-33.942 14.058s-14.058 21.21-14.058 33.942v32h-32c-12.73 0-24.941 5.056-33.942 14.058s-14.058 21.21-14.058 33.942c0 12.73 5.056 24.938 14.058 33.939s21.213 14.061 33.942 14.061h32v32c0 12.73 5.056 24.938 14.058 33.939s21.213 14.061 33.942 14.061c12.73 0 24.941-5.059 33.942-14.061s14.058-21.21 14.058-33.939v-32h32c12.73 0 24.941-5.059 33.942-14.061s14.058-21.21 14.058-33.939zM872 489.478l-360-209.92-359.8 209.92c-10.97 5.891-23.8 7.286-35.78 3.894-11.98-3.389-22.174-11.306-28.429-22.070s-8.082-23.542-5.095-35.629c2.987-12.086 10.554-22.541 21.104-29.155l384-224c7.344-4.288 15.696-6.547 24.202-6.547 8.502 0 16.854 2.259 24.198 6.547l384 224c5.446 3.178 10.214 7.398 14.032 12.419 3.814 5.021 6.605 10.742 8.211 16.842 1.603 6.099 1.99 12.454 1.139 18.704s-2.925 12.269-6.102 17.715c-3.178 5.446-7.398 10.214-12.419 14.032s-10.742 6.608-16.842 8.211c-6.099 1.606-12.454 1.994-18.704 1.142-6.25-0.854-12.269-2.928-17.715-6.106zM80 640c0.016 8.41 2.241 16.668 6.453 23.948s10.263 13.325 17.547 17.531l384 224c7.354 4.264 15.699 6.509 24.202 6.509 8.499 0 16.845-2.245 24.198-6.509l384-224c7.254-4.225 13.277-10.278 17.459-17.557 4.186-7.278 6.387-15.527 6.387-23.922 0-8.397-2.202-16.646-6.387-23.923-4.182-7.28-10.205-13.334-17.459-17.558l-384-224c-7.344-4.288-15.696-6.547-24.198-6.547-8.506 0-16.858 2.259-24.202 6.547l-384 224c-7.284 4.205-13.335 10.253-17.547 17.533-4.212 7.277-6.437 15.536-6.453 23.949zM223.28 640l288.72-168.442 288.72 168.442-288.72 168.439-288.72-168.439zM552 110.8l-40-23.242-359.8 209.92c-10.97 5.891-23.8 7.286-35.78 3.894-11.98-3.389-22.174-11.306-28.429-22.070s-8.082-23.542-5.095-35.629c2.987-12.086 10.554-22.541 21.104-29.155l384-224c7.344-4.288 15.696-6.547 24.202-6.547 8.502 0 16.854 2.259 24.198 6.547l64 37.36c5.443 3.178 10.211 7.398 14.022 12.416 3.814 5.021 6.605 10.742 8.205 16.838 1.603 6.099 1.99 12.451 1.139 18.698-0.854 6.246-2.928 12.266-6.106 17.709s-7.398 10.211-12.419 14.022c-5.018 3.814-10.739 6.605-16.838 8.205-6.096 1.603-12.448 1.99-18.694 1.139-6.246-0.854-12.266-2.928-17.709-6.106z" />
<glyph unicode="&#xe911;" glyph-name="stack" d="M937.44 280c6.349-11.002 8.077-24.070 4.806-36.342-3.267-12.275-11.267-22.752-22.246-29.136l-384-224c-7.344-4.288-15.696-6.547-24.202-6.547-8.502 0-16.854 2.259-24.198 6.547l-384 224c-11.001 6.413-19.004 16.931-22.249 29.245s-1.464 25.411 4.949 36.413c6.413 11.002 16.933 19.005 29.247 22.25s25.412 1.466 36.413-4.947l359.998-209.92 360.042 209.92c11.002 6.33 24.064 8.045 36.33 4.771 12.262-3.277 22.73-11.277 29.11-22.253zM872 489.482l-360-209.92-359.8 209.92c-10.97 5.888-23.8 7.286-35.78 3.894s-22.174-11.306-28.429-22.074c-6.255-10.765-8.082-23.539-5.095-35.629 2.987-12.086 10.554-22.541 21.104-29.152l384-224c7.344-4.288 15.696-6.547 24.202-6.547 8.502 0 16.854 2.259 24.198 6.547l384 224c11.002 6.416 19.002 16.941 22.243 29.261 3.242 12.317 1.456 25.418-4.963 36.419-6.419 10.998-16.944 19.002-29.261 22.24-12.317 3.242-25.418 1.456-36.419-4.96zM80 640c0.016 8.411 2.241 16.669 6.453 23.949s10.263 13.325 17.547 17.531l384 224c7.354 4.264 15.699 6.509 24.202 6.509 8.499 0 16.845-2.245 24.198-6.509l384-224c7.254-4.225 13.277-10.278 17.459-17.557 4.186-7.278 6.387-15.527 6.387-23.923s-2.202-16.643-6.387-23.923c-4.182-7.277-10.205-13.331-17.459-17.555l-384-224c-7.344-4.288-15.696-6.547-24.198-6.547-8.506 0-16.858 2.259-24.202 6.547l-384 224c-7.284 4.205-13.335 10.25-17.547 17.53s-6.437 15.539-6.453 23.949zM223.28 640l288.72-168.438 288.72 168.438-288.72 168.44-288.72-168.44z" />
<glyph unicode="&#xe912;" glyph-name="square-split-horizontal-fill" d="M480 784v-672c0-4.243-1.686-8.314-4.685-11.315-3.002-2.998-7.072-4.685-11.315-4.685h-240c-16.974 0-33.252 6.742-45.255 18.746s-18.745 28.282-18.745 45.254v576c0 16.974 6.743 33.252 18.745 45.255s28.281 18.745 45.255 18.745h240c4.243 0 8.314-1.686 11.315-4.686 2.998-3 4.685-7.070 4.685-11.314zM800 800h-240c-4.243 0-8.314-1.686-11.315-4.686-2.998-3-4.685-7.070-4.685-11.314v-672c0-4.243 1.686-8.314 4.685-11.315 3.002-2.998 7.072-4.685 11.315-4.685h240c16.973 0 33.251 6.742 45.254 18.746s18.746 28.282 18.746 45.254v576c0 16.974-6.742 33.252-18.746 45.255s-28.282 18.745-45.254 18.745z" />
<glyph unicode="&#xe913;" glyph-name="square-split-horizontal" d="M800 816h-576c-21.217 0-41.566-8.428-56.569-23.431s-23.431-35.351-23.431-56.569v-576c0-21.216 8.428-41.565 23.431-56.57 15.003-15.002 35.351-23.43 56.569-23.43h576c21.216 0 41.565 8.429 56.57 23.43 15.002 15.005 23.43 35.354 23.43 56.57v576c0 21.217-8.429 41.566-23.43 56.569-15.005 15.003-35.354 23.431-56.57 23.431zM240 720h224v-544h-224v544zM784 176h-224v544h224v-544z" />
<glyph unicode="&#xe914;" d="M448 736v-192c0-8.486-3.373-16.627-9.373-22.627s-14.141-9.373-22.627-9.373h-192c-8.487 0-16.626 3.373-22.628 9.373s-9.372 14.141-9.372 22.627v192c0 8.487 3.372 16.626 9.372 22.628s14.14 9.372 22.628 9.372h192c8.486 0 16.627-3.372 22.627-9.372s9.373-14.14 9.373-22.628zM800 768h-192c-8.486 0-16.627-3.372-22.627-9.372s-9.373-14.14-9.373-22.628v-192c0-8.486 3.373-16.627 9.373-22.627s14.141-9.373 22.627-9.373h192c8.486 0 16.627 3.373 22.627 9.373s9.373 14.141 9.373 22.627v192c0 8.487-3.373 16.626-9.373 22.628s-14.141 9.372-22.627 9.372zM416 384h-192c-8.487 0-16.626-3.373-22.628-9.373s-9.372-14.141-9.372-22.627v-192c0-8.486 3.372-16.627 9.372-22.627s14.14-9.373 22.628-9.373h192c8.486 0 16.627 3.373 22.627 9.373s9.373 14.141 9.373 22.627v192c0 8.486-3.373 16.627-9.373 22.627s-14.141 9.373-22.627 9.373zM800 384h-192c-8.486 0-16.627-3.373-22.627-9.373s-9.373-14.141-9.373-22.627v-192c0-8.486 3.373-16.627 9.373-22.627s14.141-9.373 22.627-9.373h192c8.486 0 16.627 3.373 22.627 9.373s9.373 14.141 9.373 22.627v192c0 8.486-3.373 16.627-9.373 22.627s-14.141 9.373-22.627 9.373z" />
<glyph unicode="&#xe915;" d="M800 416h-192c-16.973 0-33.251-6.742-45.254-18.746s-18.746-28.282-18.746-45.254v-192c0-16.973 6.742-33.251 18.746-45.254s28.282-18.746 45.254-18.746h192c16.973 0 33.251 6.742 45.254 18.746s18.746 28.282 18.746 45.254v192c0 16.973-6.742 33.251-18.746 45.254s-28.282 18.746-45.254 18.746zM800 160h-192v192h192v-192zM416 800h-192c-16.974 0-33.252-6.743-45.255-18.745s-18.745-28.281-18.745-45.255v-192c0-16.973 6.743-33.251 18.745-45.254s28.281-18.746 45.255-18.746h192c16.973 0 33.251 6.742 45.254 18.746s18.746 28.282 18.746 45.254v192c0 16.974-6.742 33.252-18.746 45.255s-28.282 18.745-45.254 18.745zM416 544h-192v192h192v-192zM800 800h-192c-16.973 0-33.251-6.743-45.254-18.745s-18.746-28.281-18.746-45.255v-192c0-16.973 6.742-33.251 18.746-45.254s28.282-18.746 45.254-18.746h192c16.973 0 33.251 6.742 45.254 18.746s18.746 28.282 18.746 45.254v192c0 16.974-6.742 33.252-18.746 45.255s-28.282 18.745-45.254 18.745zM800 544h-192v192h192v-192zM416 416h-192c-16.974 0-33.252-6.742-45.255-18.746s-18.745-28.282-18.745-45.254v-192c0-16.973 6.743-33.251 18.745-45.254s28.281-18.746 45.255-18.746h192c16.973 0 33.251 6.742 45.254 18.746s18.746 28.282 18.746 45.254v192c0 16.973-6.742 33.251-18.746 45.254s-28.282 18.746-45.254 18.746zM416 160h-192v192h192v-192z" />
<glyph unicode="&#xe916;" glyph-name="squares-four" d="M400 816h-176c-21.217 0-41.566-8.428-56.569-23.431s-23.431-35.351-23.431-56.569v-176c0-21.216 8.428-41.565 23.431-56.57 15.003-15.002 35.351-23.43 56.569-23.43h176c21.216 0 41.565 8.429 56.57 23.43 15.002 15.005 23.43 35.354 23.43 56.57v176c0 21.217-8.429 41.566-23.43 56.569-15.005 15.003-35.354 23.431-56.57 23.431zM384 576h-144v144h144v-144zM800 816h-176c-21.216 0-41.565-8.428-56.57-23.431-15.002-15.003-23.43-35.351-23.43-56.569v-176c0-21.216 8.429-41.565 23.43-56.57 15.005-15.002 35.354-23.43 56.57-23.43h176c21.216 0 41.565 8.429 56.57 23.43 15.002 15.005 23.43 35.354 23.43 56.57v176c0 21.217-8.429 41.566-23.43 56.569-15.005 15.003-35.354 23.431-56.57 23.431zM784 576h-144v144h144v-144zM400 416h-176c-21.217 0-41.566-8.429-56.569-23.43-15.003-15.005-23.431-35.354-23.431-56.57v-176c0-21.216 8.428-41.565 23.431-56.57 15.003-15.002 35.351-23.43 56.569-23.43h176c21.216 0 41.565 8.429 56.57 23.43 15.002 15.005 23.43 35.354 23.43 56.57v176c0 21.216-8.429 41.565-23.43 56.57-15.005 15.002-35.354 23.43-56.57 23.43zM384 176h-144v144h144v-144zM800 416h-176c-21.216 0-41.565-8.429-56.57-23.43-15.002-15.005-23.43-35.354-23.43-56.57v-176c0-21.216 8.429-41.565 23.43-56.57 15.005-15.002 35.354-23.43 56.57-23.43h176c21.216 0 41.565 8.429 56.57 23.43 15.002 15.005 23.43 35.354 23.43 56.57v176c0 21.216-8.429 41.565-23.43 56.57-15.005 15.002-35.354 23.43-56.57 23.43zM784 176h-144v144h144v-144z" />
<glyph unicode="&#xe917;" glyph-name="sparkle-fill" d="M832 384c0.080-13.046-3.885-25.798-11.347-36.502-7.466-10.701-18.061-18.826-30.333-23.258l-206.32-76.24-76-206.48c-4.502-12.227-12.643-22.778-23.331-30.234-10.685-7.453-23.402-11.45-36.429-11.45-13.030 0-25.744 3.997-36.432 11.45-10.685 7.456-18.829 18.006-23.328 30.234l-76.48 206.48-206.48 76c-12.227 4.499-22.779 12.643-30.233 23.328-7.454 10.688-11.45 23.402-11.45 36.432s3.996 25.744 11.45 36.432c7.453 10.685 18.006 18.829 30.233 23.328l206.48 76.48 76 206.48c4.499 12.227 12.643 22.779 23.328 30.233 10.688 7.453 23.402 11.45 36.432 11.45 13.027 0 25.744-3.996 36.429-11.45 10.688-7.454 18.829-18.006 23.331-30.233l76.48-206.48 206.48-76c12.282-4.47 22.87-12.646 30.307-23.392 7.437-10.749 11.354-23.539 11.213-36.608zM608 768h64v-64c0-8.487 3.37-16.626 9.373-22.628 6-6.001 14.141-9.372 22.627-9.372s16.627 3.372 22.627 9.372c6 6.001 9.373 14.14 9.373 22.628v64h64c8.486 0 16.627 3.372 22.627 9.372s9.373 14.14 9.373 22.628c0 8.487-3.373 16.626-9.373 22.628s-14.141 9.372-22.627 9.372h-64v64c0 8.487-3.373 16.626-9.373 22.628s-14.141 9.372-22.627 9.372c-8.486 0-16.627-3.372-22.627-9.372-6.003-6.001-9.373-14.14-9.373-22.628v-64h-64c-8.486 0-16.627-3.372-22.627-9.372-6.003-6.001-9.373-14.14-9.373-22.628s3.37-16.626 9.373-22.628c6-6.001 14.141-9.372 22.627-9.372zM960 640h-32v32c0 8.487-3.373 16.626-9.373 22.628s-14.141 9.372-22.627 9.372c-8.486 0-16.627-3.372-22.627-9.372-6.003-6.001-9.373-14.14-9.373-22.628v-32h-32c-8.486 0-16.627-3.373-22.627-9.373-6.003-6-9.373-14.141-9.373-22.627s3.37-16.627 9.373-22.627c6-6 14.141-9.373 22.627-9.373h32v-32c0-8.486 3.37-16.627 9.373-22.627 6-6 14.141-9.373 22.627-9.373s16.627 3.373 22.627 9.373c6 6 9.373 14.141 9.373 22.627v32h32c8.486 0 16.627 3.373 22.627 9.373s9.373 14.141 9.373 22.627c0 8.486-3.373 16.627-9.373 22.627s-14.141 9.373-22.627 9.373z" />
<glyph unicode="&#xe918;" glyph-name="smiley" d="M512 864c-82.278 0-162.707-24.398-231.117-70.109s-121.731-110.681-153.217-186.694c-31.486-76.016-39.724-159.658-23.673-240.355 16.052-80.694 55.671-154.819 113.85-212.998s132.303-97.798 212.998-113.85c80.698-16.051 164.342-7.814 240.355 23.674 76.013 31.485 140.986 84.803 186.694 153.216 45.712 68.41 70.109 148.838 70.109 231.117-0.115 110.294-43.981 216.038-121.971 294.028s-183.734 121.856-294.029 121.972zM512 96c-69.619 0-137.674 20.643-195.561 59.322s-103.003 93.654-129.645 157.974c-26.642 64.32-33.613 135.094-20.031 203.376s47.107 131.002 96.335 180.229c49.228 49.228 111.948 82.753 180.229 96.335s139.056 6.611 203.376-20.031c64.32-26.642 119.296-71.759 157.974-129.645s59.322-125.941 59.322-195.561c-0.106-93.325-37.226-182.794-103.216-248.784s-155.459-103.11-248.784-103.216zM320 528c0 9.494 2.816 18.774 8.090 26.669 5.274 7.891 12.771 14.045 21.542 17.677 8.771 3.635 18.422 4.586 27.731 2.733 9.312-1.853 17.866-6.426 24.579-13.136 6.71-6.714 11.283-15.267 13.136-24.579 1.853-9.309 0.902-18.96-2.733-27.731-3.632-8.771-9.786-16.269-17.677-21.542-7.894-5.274-17.174-8.090-26.669-8.090-12.73 0-24.941 5.056-33.942 14.058s-14.058 21.213-14.058 33.942zM704 528c0-9.494-2.816-18.774-8.090-26.669-5.274-7.891-12.771-14.045-21.542-17.677-8.771-3.635-18.422-4.586-27.731-2.733-9.312 1.853-17.866 6.426-24.579 13.136-6.71 6.714-11.283 15.267-13.136 24.579-1.85 9.309-0.899 18.96 2.733 27.731s9.786 16.269 17.68 21.542c7.891 5.274 17.171 8.090 26.666 8.090 12.73 0 24.941-5.056 33.942-14.058s14.058-21.213 14.058-33.942zM699.722 336c-41.162-71.162-109.6-112-187.722-112-78.118 0-146.518 40.8-187.68 112-2.314 3.642-3.869 7.715-4.57 11.974s-0.532 8.614 0.493 12.806c1.027 4.192 2.893 8.131 5.482 11.584s5.85 6.349 9.587 8.506c3.734 2.16 7.872 3.542 12.154 4.064 4.285 0.518 8.63 0.17 12.774-1.034 4.147-1.203 8.006-3.232 11.347-5.965 3.338-2.733 6.093-6.112 8.093-9.936 29.882-51.642 76.842-80 132.32-80 55.482 0 102.442 28.4 132.282 80 4.243 7.35 11.232 12.717 19.43 14.915s16.938 1.050 24.288-3.197c7.35-4.243 12.717-11.232 14.915-19.43s1.050-16.938-3.194-24.288z" />
<glyph unicode="&#xe919;" d="M512 640c0-18.986-5.629-37.549-16.179-53.334-10.547-15.789-25.542-28.093-43.082-35.357-17.542-7.267-36.845-9.168-55.469-5.466-18.621 3.706-35.728 12.848-49.152 26.275-13.427 13.424-22.57 30.531-26.275 49.152-3.703 18.624-1.802 37.925 5.466 55.467 7.264 17.542 19.568 32.535 35.357 43.084 15.786 10.548 34.349 16.179 53.334 16.179 25.462 0 49.878-10.114 67.882-28.118s28.118-42.421 28.118-67.882zM672 352c-18.986 0-37.549-5.629-53.334-16.179-15.789-10.547-28.093-25.542-35.357-43.082-7.267-17.542-9.168-36.845-5.466-55.469 3.706-18.621 12.848-35.728 26.275-49.152 13.424-13.427 30.531-22.57 49.152-26.275 18.624-3.702 37.926-1.802 55.469 5.466 17.539 7.264 32.534 19.568 43.082 35.357 10.55 15.786 16.179 34.349 16.179 53.334 0 25.459-10.115 49.878-28.118 67.882s-42.419 28.118-67.882 28.118z" />
<glyph unicode="&#xe91a;" d="M160 608h132c7.050-27.533 23.062-51.936 45.514-69.363s50.064-26.886 78.486-26.886c28.422 0 56.035 9.459 78.486 26.886s38.464 41.83 45.514 69.363h324c8.486 0 16.627 3.373 22.627 9.373 6 6.003 9.373 14.141 9.373 22.628s-3.373 16.626-9.373 22.628c-6 6.001-14.141 9.372-22.627 9.372h-324c-7.050 27.533-23.062 51.937-45.514 69.364s-50.064 26.886-78.486 26.886c-28.422 0-56.035-9.459-78.486-26.886s-38.464-41.831-45.514-69.364h-132c-8.487 0-16.626-3.372-22.628-9.372s-9.372-14.14-9.372-22.628c0-8.487 3.372-16.625 9.372-22.628 6.001-6 14.14-9.373 22.628-9.373zM416 704.001c12.659 0 25.030-3.754 35.555-10.786s18.73-17.028 23.574-28.722c4.842-11.695 6.109-24.563 3.642-36.979-2.47-12.413-8.566-23.818-17.517-32.768s-20.355-15.046-32.768-17.514c-12.416-2.47-25.283-1.203-36.979 3.642-11.693 4.842-21.69 13.046-28.72 23.571-7.034 10.525-10.787 22.899-10.787 35.556 0 16.974 6.742 33.252 18.746 45.255s28.282 18.745 45.254 18.745zM864 288h-68c-7.050 27.533-23.062 51.939-45.514 69.366s-50.064 26.886-78.486 26.886c-28.422 0-56.035-9.459-78.486-26.886s-38.464-41.834-45.514-69.366h-388c-8.487 0-16.626-3.37-22.628-9.373-6.001-6-9.372-14.141-9.372-22.627s3.372-16.624 9.372-22.627c6.001-6 14.14-9.373 22.628-9.373h388c7.050-27.533 23.062-51.936 45.514-69.363s50.064-26.886 78.486-26.886c28.422 0 56.035 9.459 78.486 26.886s38.464 41.83 45.514 69.363h68c8.486 0 16.627 3.373 22.627 9.373 6 6.003 9.373 14.141 9.373 22.627s-3.373 16.627-9.373 22.627c-6 6.003-14.141 9.373-22.627 9.373zM672 192c-12.659 0-25.030 3.754-35.555 10.787s-18.73 17.027-23.574 28.723c-4.842 11.693-6.109 24.56-3.642 36.976 2.47 12.416 8.566 23.818 17.517 32.768s20.355 15.046 32.768 17.517c12.416 2.47 25.283 1.203 36.979-3.642 11.693-4.845 21.69-13.046 28.72-23.571 7.034-10.525 10.787-22.899 10.787-35.558 0-16.973-6.742-33.251-18.746-45.254s-28.282-18.746-45.254-18.746z" />
<glyph unicode="&#xe91b;" glyph-name="sliders-horizontal" d="M160 592h120.24c9.928-28.074 28.314-52.378 52.627-69.568 24.314-17.187 53.357-26.419 83.133-26.419s58.819 9.232 83.133 26.419c24.314 17.19 42.701 41.494 52.627 69.568h312.24c12.73 0 24.941 5.056 33.942 14.058s14.058 21.213 14.058 33.942c0 12.731-5.056 24.94-14.058 33.941s-21.213 14.059-33.942 14.059h-312.24c-9.926 28.072-28.314 52.377-52.627 69.567s-53.357 26.42-83.133 26.42c-29.776 0-58.819-9.23-83.133-26.42s-42.699-41.494-52.627-69.567h-120.24c-12.73 0-24.94-5.057-33.941-14.059s-14.059-21.211-14.059-33.941c0-12.73 5.057-24.941 14.059-33.942s21.211-14.058 33.941-14.058zM416 688c9.494 0 18.774-2.815 26.669-8.089 7.891-5.275 14.045-12.771 17.677-21.542 3.635-8.771 4.586-18.423 2.733-27.732-1.853-9.312-6.426-17.866-13.136-24.579-6.714-6.71-15.267-11.283-24.579-13.136-9.309-1.853-18.96-0.902-27.731 2.733-8.771 3.632-16.269 9.786-21.542 17.677-5.274 7.894-8.090 17.174-8.090 26.669 0 12.731 5.056 24.94 14.058 33.941s21.213 14.059 33.942 14.059zM864 304h-56.24c-9.926 28.074-28.314 52.378-52.627 69.568-24.314 17.187-53.357 26.419-83.133 26.419s-58.819-9.232-83.133-26.419c-24.314-17.19-42.701-41.494-52.627-69.568h-376.24c-12.73 0-24.94-5.056-33.941-14.058s-14.059-21.213-14.059-33.942c0-12.73 5.057-24.941 14.059-33.942s21.211-14.058 33.941-14.058h376.24c9.926-28.074 28.314-52.378 52.627-69.568 24.314-17.187 53.357-26.419 83.133-26.419s58.819 9.232 83.133 26.419c24.314 17.19 42.701 41.494 52.627 69.568h56.24c12.73 0 24.941 5.056 33.942 14.058s14.058 21.213 14.058 33.942c0 12.73-5.056 24.941-14.058 33.942s-21.213 14.058-33.942 14.058zM672 208c-9.494 0-18.774 2.816-26.669 8.090-7.891 5.274-14.045 12.771-17.677 21.542s-4.586 18.422-2.733 27.731c1.853 9.312 6.426 17.866 13.136 24.579 6.714 6.71 15.267 11.283 24.579 13.136 9.309 1.853 18.96 0.902 27.731-2.733 8.771-3.632 16.269-9.786 21.542-17.677 5.274-7.894 8.090-17.174 8.090-26.669 0-12.73-5.056-24.941-14.058-33.942s-21.213-14.058-33.942-14.058z" />
<glyph unicode="&#xe91c;" glyph-name="shield-warning" d="M464 432v144c0 12.73 5.056 24.941 14.058 33.942s21.213 14.058 33.942 14.058c12.73 0 24.941-5.056 33.942-14.058s14.058-21.213 14.058-33.942v-144c0-12.73-5.056-24.941-14.058-33.942s-21.213-14.058-33.942-14.058c-12.73 0-24.941 5.056-33.942 14.058s-14.058 21.213-14.058 33.942zM512 208c12.659 0 25.030 3.754 35.555 10.787 10.525 7.030 18.73 17.027 23.574 28.72 4.842 11.696 6.109 24.563 3.642 36.979-2.47 12.413-8.566 23.818-17.517 32.768s-20.355 15.046-32.768 17.517c-12.416 2.467-25.283 1.2-36.979-3.642-11.693-4.845-21.69-13.050-28.72-23.574-7.034-10.525-10.787-22.896-10.787-35.555 0-16.973 6.742-33.251 18.746-45.254s28.282-18.746 45.254-18.746zM912 736v-224c0-217.162-105.28-348.88-193.6-421.158-94.838-77.562-189.76-104.003-193.76-105.162-8.278-2.24-17.002-2.24-25.28 0-4 1.12-98.918 27.6-193.76 105.162-88.32 72.278-193.6 203.997-193.6 421.158v224c0 21.217 8.428 41.566 23.431 56.569s35.351 23.431 56.569 23.431h640c21.216 0 41.565-8.428 56.57-23.431 15.002-15.003 23.43-35.351 23.43-56.569zM816 720h-608v-208c0-142.838 52.36-258.762 155.642-344.598 44.262-36.541 94.435-65.261 148.358-84.922 53.92 19.674 104.090 48.39 148.358 84.922 103.283 85.837 155.642 201.76 155.642 344.598v208z" />
<glyph unicode="&#xe91d;" glyph-name="shield-check-fill" d="M832 800h-640c-16.974 0-33.252-6.743-45.255-18.745s-18.745-28.281-18.745-45.255v-224c0-210.88 102.080-338.678 187.72-408.762 92.238-75.44 184.002-101.037 188.002-102.118 5.498-1.498 11.299-1.498 16.8 0 4 1.082 95.638 26.678 188 102.118 85.398 70.083 187.478 197.882 187.478 408.762v224c0 16.974-6.742 33.252-18.746 45.255s-28.282 18.745-45.254 18.745zM694.72 521.36l-224-224c-2.973-2.976-6.502-5.334-10.387-6.947-3.885-1.61-8.048-2.438-12.253-2.438s-8.368 0.829-12.253 2.438c-3.885 1.613-7.414 3.971-10.387 6.947l-96 96c-6.003 6.003-9.379 14.147-9.379 22.64s3.376 16.637 9.379 22.64c6.003 6.003 14.147 9.379 22.64 9.379s16.637-3.376 22.64-9.379l73.28-73.402 201.36 201.402c2.973 2.973 6.502 5.331 10.387 6.941s8.048 2.438 12.253 2.438c4.205 0 8.368-0.829 12.253-2.438s7.414-3.968 10.387-6.941c2.973-2.973 5.331-6.502 6.941-10.387s2.438-8.048 2.438-12.253c0-4.205-0.829-8.368-2.438-12.253s-3.968-7.414-6.941-10.387h0.080z" />
<glyph unicode="&#xe91e;" glyph-name="sheild" d="M935.12 673.768c0 40.245-0.694 50.257-4.435 58.312-4.042 8.69-10.957 17.173-20.813 24.281-10.349 7.459-25.251 12.474-70.25 26.281l-305.034 93.594c-12.87 3.949-15.629 4.666-18.186 4.969-2.899 0.343-5.882 0.343-8.781 0-2.557-0.303-5.322-1.021-18.189-4.969l-305.031-93.594c-44.983-13.802-59.877-18.829-70.219-26.281-9.859-7.109-16.769-15.59-20.812-24.281-3.747-8.056-4.468-18.044-4.469-58.312v-222.594c0-99.779 66.958-190.285 154.907-265.251 86.924-74.090 187.916-127.456 242.281-153.405l13.344-6.125c2.73-1.101 4.275-1.478 6.189-1.814 3.235-0.566 9.542-0.566 12.781 0 3.827 0.672 6.154 1.555 19.53 7.939 54.368 25.949 155.36 79.315 242.282 153.405 87.949 74.966 154.906 165.472 154.906 265.251v222.594zM480.029 218.426v37.843h-32.502c-50.118 0.003-96.528 23.123-120.998 61.248-9.545 14.874-5.216 34.675 9.654 44.221 14.874 9.539 34.675 5.213 44.221-9.658 11.050-17.206 35.558-31.808 67.123-31.811h121.376c51.469 0 81.782 33.056 81.782 61.094-0.010 28.032-30.323 61.059-81.782 61.062h-113.782c-74.202 0-145.772 50.31-145.78 125.091 0 74.79 71.575 125.093 145.78 125.095h24.909v37.812c0 17.673 14.326 32 32 32 17.664-0.007 32-14.332 32-32v-37.812h32.467c50.122-0.002 96.528-23.123 121.002-61.248 9.546-14.874 5.216-34.675-9.658-44.221-14.874-9.539-34.675-5.213-44.218 9.658-11.053 17.206-35.558 31.808-67.126 31.811h-121.376c-51.466 0-81.779-33.059-81.779-61.094 0.006-28.032 30.323-61.091 81.779-61.091h113.782c74.205-0.003 145.773-50.282 145.782-125.062 0-74.794-71.574-125.094-145.782-125.094h-24.874v-37.843c-0.010-17.664-14.339-31.994-32-32-17.67 0-31.994 14.333-32 32zM999.12 451.174c0-128.685-85.328-235.51-177.373-313.968-93.072-79.334-199.792-135.491-256.25-162.438-11.808-5.632-22.086-10.771-36.032-13.219-10.554-1.85-24.352-1.85-34.906 0-13.949 2.448-24.227 7.587-36.032 13.219-56.458 26.947-163.179 83.104-256.251 162.438-92.046 78.458-177.375 185.286-177.375 313.968v222.594c0 34.154-0.693 61.38 10.438 85.312 9.101 19.562 23.545 36.308 41.406 49.188 21.042 15.17 48.741 23.239 88.906 35.563l305 93.562c10.768 3.304 19.859 6.239 29.469 7.375l5.936 0.5c5.949 0.35 11.93 0.199 17.846-0.5 9.606-1.136 18.701-4.071 29.469-7.375l304.998-93.562c40.166-12.324 67.862-20.395 88.906-35.563 17.869-12.882 32.339-29.62 41.437-49.188 11.126-23.93 10.406-51.157 10.406-85.312v-222.594z" />
<glyph unicode="&#xe91f;" glyph-name="settings" d="M619.645 448.013c-0.006 59.44-48.211 107.626-107.658 107.626-59.437-0.006-107.616-48.189-107.622-107.626 0-59.446 48.182-107.651 107.622-107.658 59.45 0 107.658 48.208 107.658 107.658zM683.645 448.013c0-94.794-76.861-171.658-171.658-171.658-94.784 0.006-171.622 76.867-171.622 171.658 0.006 94.781 76.842 171.619 171.622 171.626 94.794 0 171.651-76.842 171.658-171.626zM564.64 828.83c-0.003 13.955-5.568 27.348-15.437 37.219-9.862 9.859-23.238 15.402-37.19 15.406-13.952 0-27.35-5.543-37.216-15.406-9.872-9.869-15.437-23.262-15.44-37.219v-7.313c-0.077-19.852-5.946-39.259-16.906-55.812-10.963-16.553-26.531-29.553-44.781-37.375-3.046-1.305-6.275-2.123-9.562-2.437-16.858-6.098-35.062-7.68-52.781-4.469-20.017 3.63-38.49 13.183-53.033 27.406l-0.25 0.25-2.563 2.531c-4.886 4.89-10.709 8.791-17.094 11.438-6.386 2.646-13.244 4-20.156 4-6.907-0.002-13.744-1.356-20.125-4-6.385-2.647-12.208-6.517-17.094-11.406l-0.031-0.031c-4.893-4.887-8.758-10.705-11.406-17.094s-4.031-13.241-4.031-20.156c0.001-6.914 1.383-13.768 4.031-20.156 2.647-6.382 6.52-12.18 11.406-17.062l2.812-2.813c14.223-14.543 23.777-33.014 27.406-53.031 3.508-19.347 1.254-39.258-6.312-57.376-7.052-19.171-19.695-35.802-36.313-47.686s-36.42-18.49-56.844-18.97c-0.249-0.006-0.501-0.032-0.75-0.032h-3.812c-12.21 0-23.981-4.237-33.344-11.904l-3.875-3.501c-9.869-9.872-15.406-23.267-15.406-37.219 0.002-13.955 5.538-27.35 15.406-37.219 9.867-9.866 23.26-15.405 37.219-15.405h7.312c19.855-0.083 39.259-5.978 55.812-16.938 16.462-10.902 29.382-26.352 37.219-44.47 8.207-18.605 10.687-39.242 7.062-59.248-3.629-20.016-13.182-38.493-27.406-53.034l-0.219-0.25-2.563-2.531c-4.897-4.893-8.79-10.739-11.437-17.123-2.646-6.387-4-13.238-4-20.157 0.001-6.906 1.356-13.744 4-20.125 1.985-4.784 4.667-9.267 7.938-13.251l3.5-3.875c4.886-4.893 10.705-8.787 17.094-11.437 6.387-2.646 13.244-4 20.156-4 6.914 0 13.768 1.354 20.156 4 6.387 2.65 12.178 6.547 17.062 11.437l2.812 2.813c14.542 14.224 33.018 23.744 53.030 27.376 20.013 3.622 40.672 1.181 59.283-7.030 18.378-7.174 34.278-19.482 45.779-35.565l4.221-6.374c9.232-15.2 14.33-32.598 14.749-50.467 0.006-0.25 0.032-0.502 0.032-0.752v-3.811c0-13.958 5.536-27.35 15.405-37.219l3.843-3.501c9.37-7.677 21.165-11.904 33.376-11.904 13.955 0 27.347 5.536 37.219 15.405 9.866 9.869 15.405 23.261 15.405 37.219v7.312c0.083 19.859 5.978 39.258 16.938 55.811 10.928 16.502 26.4 29.482 44.563 37.315 18.582 8.17 39.21 10.592 59.187 6.966 17.507-3.178 33.83-10.883 47.376-22.282l5.626-5.123 0.25-0.25 2.563-2.531 3.843-3.501c3.994-3.277 8.464-5.952 13.248-7.939 6.387-2.643 13.242-4 20.157-4 6.909 0.003 13.744 1.357 20.125 4 6.39 2.65 12.214 6.525 17.094 11.408l0.032 0.032c4.896 4.89 8.79 10.704 11.437 17.091 2.646 6.384 4 13.242 4 20.157 0 6.912-1.354 13.773-4 20.157s-6.55 12.186-11.437 17.062l-0.032 0.032-2.531 2.563-0.25 0.218c-14.227 14.544-23.744 33.024-27.376 53.030-3.603 19.904-1.229 40.438 6.877 58.97 7.821 18.256 20.822 33.821 37.373 44.781 16.554 10.966 35.958 16.832 55.814 16.906h3.936c13.955 0.003 27.347 5.568 37.219 15.44 9.859 9.862 15.402 23.238 15.408 37.187 0 13.952-5.546 27.35-15.408 37.219-9.869 9.869-23.261 15.437-37.219 15.437h-7.312c-19.856 0.080-39.258 5.946-55.811 16.906-16.56 10.966-29.552 26.538-37.376 44.781-1.306 3.050-2.154 6.275-2.467 9.562-6.096 16.854-7.651 35.066-4.438 52.784 3.632 20.015 13.187 38.489 27.405 53.030l0.25 0.281 2.563 2.531 3.469 3.844c3.277 3.992 5.952 8.462 7.939 13.25 2.646 6.386 4 13.244 4 20.156-0.003 6.907-1.357 13.744-4 20.125-2.65 6.386-6.518 12.207-11.408 17.094l-0.032 0.031c-4.89 4.895-10.704 8.758-17.091 11.406s-13.238 4.031-20.157 4.031c-6.912-0.001-13.773-1.384-20.157-4.031s-12.182-6.52-17.062-11.406l-2.813-2.812c-14.544-14.227-33.021-23.778-53.030-27.406-19.91-3.61-40.435-1.172-58.97 6.938-18.246 7.823-33.821 20.793-44.781 37.344-10.954 16.548-16.832 35.965-16.906 55.812v3.938zM628.64 825.143l0.406-5.5c0.544-3.611 1.6-7.132 3.155-10.437l2.72-4.781 3.373-4.375c3.658-4.078 8.176-7.324 13.251-9.5l0.314-0.156c6.912-3.052 14.595-3.942 22.029-2.594 7.347 1.334 14.106 4.827 19.469 10l2.531 2.469c10.822 10.828 23.667 19.418 37.814 25.281 14.154 5.869 29.331 8.905 44.656 8.906 15.328 0 30.528-3.036 44.688-8.906 14.141-5.865 26.989-14.455 37.811-25.281 10.838-10.829 19.443-23.69 25.312-37.844s8.874-29.334 8.877-44.656c0-15.327-3.008-30.529-8.877-44.688-5.133-12.383-12.358-23.779-21.344-33.688l-3.968-4.157-2.282-2.282-3.626-4.31c-3.286-4.557-5.549-9.802-6.56-15.376-1.35-7.434-0.429-15.117 2.624-22.032 1.101-2.496 1.818-5.13 2.25-7.811 2.912-4.995 6.906-9.29 11.75-12.499 6.147-4.074 13.37-6.253 20.749-6.282h7.062c30.931 0 60.598-12.317 82.47-34.189 21.862-21.869 34.157-51.539 34.157-82.467-0.006-30.925-12.298-60.573-34.157-82.438-21.872-21.872-51.536-34.186-82.47-34.189h-3.686l-5.469-0.406c-3.613-0.541-7.13-1.603-10.438-3.155l-4.813-2.717c-6.15-4.074-10.973-9.853-13.875-16.627l-0.154-0.31c-3.053-6.915-3.942-14.595-2.595-22.032 1.35-7.434 4.883-14.298 10.157-19.69l2.282-2.278 3.968-4.157c8.992-9.91 16.211-21.302 21.344-33.69 5.869-14.154 8.906-29.331 8.906-44.656 0-15.328-3.037-30.528-8.906-44.688-5.866-14.138-14.483-26.957-25.312-37.779l0.032-0.032c-10.832-10.845-23.696-19.446-37.846-25.312-14.154-5.869-29.334-8.874-44.656-8.877-15.328 0-30.528 3.008-44.688 8.877-14.15 5.869-27.014 14.48-37.843 25.312l-2.282 2.282c-5.398 5.28-12.253 8.838-19.686 10.189-7.434 1.347-15.117 0.426-22.032-2.627l-0.282-0.125c-6.784-2.909-12.586-7.731-16.656-13.875-4.070-6.15-6.25-13.37-6.282-20.749v-7.062c0-30.928-12.282-60.595-34.154-82.47-21.872-21.862-51.539-34.154-82.47-34.154-28.998 0-56.89 10.79-78.282 30.154l-4.186 4c-21.872 21.875-34.157 51.539-34.157 82.47v3.062c-0.179 7.584-2.618 14.954-7.030 21.123-4.41 6.163-10.602 10.851-17.722 13.469-0.63 0.234-1.258 0.512-1.875 0.784-6.912 3.050-14.592 3.971-22.029 2.624l0.029-0.032c-7.325-1.328-14.102-4.784-19.466-9.936l-2.534-2.531-0.029 0.029c-10.829-10.838-23.666-19.446-37.813-25.312-14.156-5.869-29.331-8.906-44.656-8.906s-30.5 3.040-44.656 8.906c-14.159 5.869-27.042 14.464-37.875 25.312-10.823 10.822-19.424 23.686-25.281 37.814-5.868 14.154-8.874 29.334-8.875 44.656 0 15.328 3.005 30.528 8.875 44.688 5.869 14.154 14.475 27.014 25.313 37.843l2.281 2.282c5.281 5.398 8.839 12.253 10.188 19.686 1.347 7.434 0.426 15.12-2.625 22.032l-0.125 0.314c-2.904 6.771-7.731 12.554-13.875 16.624-4.611 3.053-9.825 5.056-15.25 5.875l-5.5 0.406h-7.062c-30.928 0-60.596 12.282-82.469 34.157-21.87 21.869-34.155 51.539-34.156 82.467 0 30.931 12.288 60.598 34.156 82.47 21.872 21.869 51.538 34.154 82.469 34.154h3.062c7.586 0.179 14.953 2.618 21.125 7.034 6.172 4.413 10.88 10.595 13.5 17.718l0.75 1.875c3.051 6.912 3.941 14.595 2.594 22.029-1.35 7.43-4.877 14.291-10.156 19.69l-2.313 2.282c-10.828 10.824-19.418 23.701-25.281 37.843-5.868 14.156-8.905 29.331-8.906 44.656s3.039 30.5 8.906 44.656c5.869 14.158 14.468 27.043 25.313 37.875 10.823 10.826 23.671 19.419 37.812 25.281 14.154 5.868 29.334 8.873 44.656 8.875 15.327 0 30.529-3.006 44.687-8.875 14.155-5.868 27.015-14.472 37.844-25.312l2.282-2.281 4.31-3.625c4.557-3.288 9.802-5.551 15.376-6.563 7.434-1.348 15.117-0.426 22.032 2.625l3.094 1.188c1.539 0.496 3.12 0.836 4.717 1.094 4.986 2.907 9.29 6.874 12.499 11.719 4.051 6.116 6.23 13.291 6.282 20.625v7.188c0.003 30.931 12.317 60.597 34.189 82.469 21.872 21.867 51.542 34.156 82.467 34.156 30.925-0.004 60.602-12.285 82.47-34.156 21.872-21.87 34.154-51.536 34.157-82.469v-3.687z" />
<glyph unicode="&#xe920;" glyph-name="scroll" d="M368 592c0 12.73 5.056 24.941 14.058 33.942s21.213 14.058 33.942 14.058h240c12.73 0 24.941-5.056 33.942-14.058s14.058-21.213 14.058-33.942c0-12.73-5.056-24.941-14.058-33.942s-21.213-14.058-33.942-14.058h-240c-12.73 0-24.941 5.056-33.942 14.058s-14.058 21.213-14.058 33.942zM416 384h240c12.73 0 24.941 5.056 33.942 14.058s14.058 21.213 14.058 33.942c0 12.73-5.056 24.941-14.058 33.942s-21.213 14.058-33.942 14.058h-240c-12.73 0-24.941-5.056-33.942-14.058s-14.058-21.213-14.058-33.942c0-12.73 5.056-24.941 14.058-33.942s21.213-14.058 33.942-14.058zM944 192c0-38.192-15.171-74.819-42.176-101.824s-63.632-42.176-101.824-42.176h-448c-38.191 0-74.818 15.171-101.823 42.176s-42.177 63.632-42.177 101.824v512c0 12.73-5.057 24.94-14.059 33.941s-21.211 14.059-33.941 14.059c-12.73 0-24.94-5.057-33.941-14.059s-14.059-21.211-14.059-33.941c0-14.92 13.4-26.040 13.52-26.16l-0.72 0.56c5.283-3.686 9.769-8.398 13.192-13.854s5.713-11.546 6.733-17.906c1.020-6.36 0.75-12.86-0.795-19.113-1.545-6.256-4.332-12.134-8.197-17.286-3.864-5.155-8.726-9.475-14.297-12.71s-11.735-5.315-18.126-6.118c-6.391-0.803-12.878-0.31-19.076 1.446s-11.977 4.746-16.996 8.784c-5.28 3.878-51.24 40.158-51.24 102.358 0 38.191 15.171 74.818 42.177 101.823s63.632 42.177 101.823 42.177h544c38.192 0 74.819-15.172 101.824-42.177s42.176-63.632 42.176-101.823v-400h16c10.387 0 20.493-3.37 28.8-9.6 5.238-3.92 51.2-40.198 51.2-102.4zM370.48 271.2c3.187 9.552 9.299 17.856 17.469 23.744 8.17 5.885 17.981 9.053 28.051 9.056h336v400c0 12.73-5.056 24.94-14.058 33.941s-21.213 14.059-33.942 14.059h-408.24c5.461-15.414 8.248-31.647 8.24-48v-512c0-12.73 5.057-24.941 14.059-33.942 9-9.002 21.212-14.058 33.941-14.058s24.941 5.056 33.942 14.058c9.002 9.002 14.058 21.213 14.058 33.942 0 14.32-12.678 25.52-12.8 25.6-8.061 6.048-14.013 14.48-17.014 24.099-3.002 9.622-2.899 19.942 0.294 29.501zM848 192c-0.141 5.69-1.859 11.229-4.96 16h-348c0.701-5.306 1.046-10.65 1.040-16 0.010-16.352-2.774-32.586-8.24-48h312.16c12.73 0 24.941 5.056 33.942 14.058s14.058 21.213 14.058 33.942z" />
<glyph unicode="&#xe921;" d="M896 704v-256c0-67.894-26.973-133.011-74.979-181.021-48.010-48.006-113.126-74.979-181.021-74.979h-512v256c0 67.894 26.971 133.011 74.981 181.021 48.009 48.008 113.124 74.979 181.019 74.979h512z" />
<glyph unicode="&#xe922;" d="M96 448c0.085 76.355 30.455 149.562 84.447 203.553s127.197 84.362 203.553 84.447h434.762l-41.402 41.36c-6.003 6.004-9.379 14.148-9.379 22.64s3.376 16.636 9.379 22.64c6.003 6.004 14.147 9.378 22.64 9.378s16.637-3.373 22.64-9.378l96-96c2.976-2.972 5.334-6.501 6.947-10.386 1.61-3.884 2.438-8.049 2.438-12.254s-0.829-8.369-2.438-12.254c-1.613-3.884-3.971-7.414-6.947-10.386l-96-96c-6.003-6.003-14.147-9.379-22.64-9.379s-16.637 3.376-22.64 9.379c-6.003 6.003-9.379 14.147-9.379 22.64s3.376 16.637 9.379 22.64l41.402 41.36h-434.762c-59.389-0.063-116.327-23.684-158.322-65.68-41.995-41.994-65.615-98.931-65.678-158.32 0-8.486-3.372-16.627-9.372-22.627-6.001-6.003-14.14-9.373-22.628-9.373s-16.626 3.37-22.628 9.373c-6.001 6-9.372 14.141-9.372 22.627zM896 480c-8.486 0-16.627-3.373-22.627-9.373s-9.373-14.141-9.373-22.627c-0.064-59.389-23.683-116.326-65.677-158.323-41.997-41.994-98.934-65.613-158.323-65.677h-434.76l41.4 41.36c2.973 2.973 5.332 6.502 6.94 10.387s2.437 8.048 2.437 12.253c0 4.205-0.828 8.368-2.437 12.253s-3.967 7.414-6.94 10.387c-2.973 2.973-6.503 5.331-10.387 6.941s-8.048 2.438-12.253 2.438c-4.204 0-8.368-0.829-12.253-2.438s-7.414-3.968-10.387-6.941l-96-96c-2.975-2.973-5.335-6.502-6.946-10.387s-2.439-8.048-2.439-12.253c0-4.205 0.829-8.368 2.439-12.253s3.971-7.414 6.946-10.387l96-96c2.973-2.973 6.503-5.331 10.387-6.941s8.048-2.438 12.253-2.438c4.205 0 8.368 0.829 12.253 2.438s7.414 3.968 10.387 6.941c2.973 2.973 5.332 6.502 6.94 10.387s2.437 8.048 2.437 12.253c0 4.205-0.828 8.368-2.437 12.253s-3.967 7.414-6.94 10.387l-41.4 41.36h434.76c76.355 0.083 149.562 30.454 203.552 84.448 53.994 53.99 84.365 127.197 84.448 203.552 0 8.486-3.373 16.627-9.373 22.627s-14.141 9.373-22.627 9.373zM544 320c8.486 0 16.627 3.37 22.627 9.373 6 6 9.373 14.141 9.373 22.627v192c0.003 5.456-1.389 10.826-4.045 15.594-2.653 4.768-6.483 8.778-11.126 11.648-4.643 2.867-9.939 4.502-15.392 4.749s-10.877-0.909-15.757-3.35l-64-32c-7.59-3.798-13.36-10.454-16.042-18.509-2.685-8.051-2.058-16.842 1.741-24.432s10.458-13.36 18.509-16.042c8.054-2.682 16.842-2.054 24.432 1.741l17.68 8.842v-140.24c0-8.486 3.373-16.627 9.373-22.627 6-6.003 14.141-9.373 22.627-9.373z" />
<glyph unicode="&#xe923;" glyph-name="repeat-once" d="M80 448c0.085 80.598 32.14 157.875 89.133 214.867s134.267 89.049 214.867 89.133h396l-14.080 14.040c-4.464 4.465-8.006 9.766-10.422 15.599s-3.661 12.086-3.661 18.401c0 6.315 1.245 12.567 3.661 18.401s5.958 11.134 10.422 15.599c4.464 4.465 9.766 8.007 15.6 10.423s12.086 3.66 18.4 3.66c6.314 0 12.566-1.244 18.4-3.66s11.136-5.958 15.6-10.423l96-96c4.474-4.459 8.026-9.758 10.448-15.593s3.67-12.090 3.67-18.407c0-6.317-1.248-12.573-3.67-18.407s-5.974-11.133-10.448-15.593l-96-96.001c-9.018-9.014-21.248-14.083-34-14.083s-24.982 5.069-34 14.083c-9.018 9.018-14.083 21.248-14.083 34 0 12.755 5.066 24.986 14.083 34.001l14.080 13.96h-396c-55.146-0.063-108.014-21.996-147.008-60.992s-60.928-91.862-60.992-147.008c0-12.73-5.057-24.941-14.059-33.942s-21.211-14.058-33.941-14.058c-12.73 0-24.94 5.056-33.941 14.058s-14.059 21.213-14.059 33.942zM896 496c-12.73 0-24.941-5.056-33.942-14.058-9.002-9.005-14.058-21.213-14.058-33.942-0.064-55.146-21.997-108.016-60.992-147.008-38.995-38.995-91.862-60.928-147.008-60.992h-396l14.080 14.038c4.465 4.467 8.007 9.766 10.423 15.6s3.66 12.086 3.66 18.4c0 6.317-1.244 12.57-3.66 18.403s-5.958 11.133-10.423 15.597c-4.465 4.467-9.765 8.010-15.599 10.426s-12.086 3.658-18.401 3.658c-6.314 0-12.567-1.242-18.401-3.658s-11.134-5.958-15.599-10.426l-96-96c-4.475-4.458-8.026-9.757-10.448-15.59-2.423-5.837-3.67-12.090-3.67-18.41 0-6.317 1.247-12.573 3.67-18.406s5.973-11.133 10.448-15.594l96-96c4.465-4.464 9.766-8.006 15.599-10.422s12.086-3.661 18.401-3.661c6.314 0 12.567 1.245 18.401 3.661s11.134 5.958 15.599 10.422c4.465 4.467 8.007 9.766 10.423 15.6s3.66 12.086 3.66 18.4c0 6.317-1.244 12.57-3.66 18.403s-5.958 11.133-10.423 15.597l-14.080 13.962h396c80.598 0.083 157.875 32.141 214.867 89.133s89.050 134.266 89.133 214.867c0 12.73-5.056 24.938-14.058 33.942-9.002 9.002-21.213 14.058-33.942 14.058zM544 304c12.73 0 24.941 5.056 33.942 14.058s14.058 21.213 14.058 33.942v192c0.003 8.179-2.086 16.227-6.067 23.373s-9.722 13.158-16.678 17.462c-6.957 4.304-14.899 6.758-23.072 7.13s-16.304-1.35-23.622-5.005l-64-32c-10.595-5.648-18.688-15.059-22.685-26.378-3.997-11.322-3.606-23.728 1.091-34.774 4.701-11.046 13.37-19.93 24.298-24.899 10.928-4.973 23.322-5.667 34.736-1.949v-114.96c0-12.73 5.056-24.941 14.058-33.942s21.213-14.058 33.942-14.058z" />
<glyph unicode="&#xe924;" glyph-name="prohibit-1" d="M814.522 709.4l52.998 58.32c8.381 9.449 12.701 21.82 12.022 34.433s-6.301 24.449-15.648 32.944c-9.347 8.495-21.664 12.963-34.285 12.436s-24.525-6.008-33.13-15.252l-52.96-58.24c-79.718 56.227-177.235 81.385-274.202 70.74-96.97-10.645-186.706-56.359-252.327-128.541s-102.601-165.858-103.985-263.397c-1.383-97.542 32.926-192.227 96.473-266.24l-53-58.32c-4.328-4.65-7.69-10.112-9.892-16.070s-3.198-12.294-2.933-18.64c0.265-6.346 1.787-12.579 4.478-18.333s6.497-10.915 11.198-15.187c4.701-4.272 10.203-7.568 16.187-9.699 5.984-2.128 12.332-3.050 18.674-2.707 6.343 0.339 12.555 1.936 18.276 4.698 5.721 2.758 10.837 6.627 15.053 11.379l52.96 58.24c79.718-56.227 177.235-81.386 274.202-70.742 96.97 10.646 186.707 56.362 252.326 128.544 65.619 72.179 102.602 165.856 103.984 263.395 1.386 97.542-32.925 192.227-96.47 266.242zM208 448c-0.046 54.806 14.736 108.602 42.779 155.69 28.044 47.086 68.304 85.709 116.514 111.774s102.576 38.602 157.331 36.281 107.866-19.413 153.696-49.464l-403.64-443.998c-43.219 53.779-66.747 120.723-66.68 189.718zM512 144c-59.11-0.058-116.938 17.232-166.32 49.722l403.642 444c35.808-44.688 58.259-98.586 64.762-155.478 6.499-56.896-3.216-114.467-28.022-166.080-24.81-51.613-63.702-95.158-112.192-125.622-48.49-30.461-104.605-46.595-161.869-46.541z" />
<glyph unicode="&#xe925;" glyph-name="prohibit" d="M512 880c-85.44 0-168.963-25.336-240.006-72.805-71.042-47.469-126.412-114.938-159.11-193.876s-41.252-165.798-24.583-249.597c16.669-83.802 57.813-160.774 118.229-221.19 60.416-60.419 137.39-101.562 221.192-118.23 83.798-16.669 170.659-8.115 249.597 24.582s146.406 88.067 193.875 159.11c47.469 71.043 72.806 154.566 72.806 240.006-0.128 114.534-45.683 224.342-126.669 305.33-80.989 80.988-190.797 126.543-305.331 126.67zM848 448c0.070-72.531-23.446-143.12-67.002-201.12l-470.118 470.12c49.936 37.312 109.264 59.997 171.354 65.52s124.493-6.337 180.227-34.25c55.734-27.914 102.608-70.781 135.373-123.809 32.768-53.027 50.138-114.125 50.166-176.461zM176 448c-0.069 72.531 23.446 143.12 67 201.12l470.12-470.118c-49.936-37.312-109.264-60-171.354-65.52-62.090-5.523-124.493 6.336-180.227 34.25-55.736 27.914-102.607 70.781-135.374 123.808s-50.136 114.125-50.165 176.461z" />
<glyph unicode="&#xe926;" glyph-name="plus" d="M912 448c0-12.73-5.056-24.941-14.058-33.942s-21.213-14.058-33.942-14.058h-304v-304c0-12.73-5.056-24.941-14.058-33.942s-21.213-14.058-33.942-14.058c-12.73 0-24.941 5.056-33.942 14.058s-14.058 21.213-14.058 33.942v304h-304c-12.73 0-24.94 5.056-33.941 14.058s-14.059 21.213-14.059 33.942c0 12.73 5.057 24.941 14.059 33.942s21.211 14.058 33.941 14.058h304v304c0 12.73 5.056 24.94 14.058 33.941s21.213 14.059 33.942 14.059c12.73 0 24.941-5.057 33.942-14.059s14.058-21.211 14.058-33.941v-304h304c12.73 0 24.941-5.056 33.942-14.058s14.058-21.213 14.058-33.942z" />
<glyph unicode="&#xe927;" glyph-name="plugs" d="M548 288l46.080 46.042c9.018 9.018 14.083 21.245 14.083 34 0 12.752-5.066 24.982-14.083 34s-21.248 14.083-34 14.083c-12.752 0-24.982-5.066-34-14.083l-46.080-46.042-60 60 46.080 46.042c9.018 9.018 14.083 21.245 14.083 34 0 12.752-5.066 24.982-14.083 34s-21.248 14.083-34 14.083c-12.752 0-24.982-5.066-34-14.083l-46.080-46.042-62.040 61.962c-9.017 9.018-21.247 14.083-34 14.083s-24.983-5.066-34-14.083c-9.017-9.018-14.083-21.248-14.083-34 0-12.755 5.066-24.982 14.083-34l14.040-13.962-81.84-81.958c-27.003-27.005-42.173-63.632-42.173-101.821s15.17-74.816 42.173-101.821l10.2-10.16-102.32-102.278c-9.017-9.018-14.083-21.248-14.083-34 0-12.755 5.066-24.982 14.083-34s21.248-14.083 34-14.083c12.753 0 24.983 5.066 34 14.083l102.28 102.32 10.16-10.202c27.036-26.944 63.65-42.074 101.821-42.074 38.17 0 74.784 15.13 101.821 42.074l81.878 81.92 14.042-14.080c9.014-9.018 21.245-14.083 34-14.083 12.752 0 24.982 5.066 34 14.083 9.014 9.018 14.083 21.248 14.083 34s-5.069 24.982-14.083 34l-62.042 62.080zM378.16 158.042c-4.461-4.477-9.757-8.026-15.594-10.448-5.834-2.422-12.090-3.67-18.406-3.67s-12.573 1.248-18.406 3.67c-5.835 2.422-11.134 5.971-15.594 10.448l-88.12 88.24c-4.475 4.458-8.025 9.757-10.448 15.59-2.423 5.837-3.67 12.090-3.67 18.41 0 6.317 1.247 12.573 3.67 18.406s5.973 11.133 10.448 15.594l81.96 81.718 156-156-81.84-81.958zM962.16 898.040c-4.461 4.475-9.757 8.026-15.594 10.448-5.834 2.423-12.090 3.67-18.406 3.67s-12.573-1.247-18.406-3.67c-5.837-2.422-11.133-5.973-15.594-10.448l-102.4-102.4-10.16 10.2c-27.030 26.954-63.648 42.091-101.821 42.091s-74.787-15.136-101.818-42.091l-81.962-81.84-14.038 14.080c-9.018 9.017-21.248 14.083-34 14.083-12.755 0-24.986-5.066-34-14.083-9.018-9.017-14.083-21.247-14.083-34s5.066-24.983 14.083-34l320-320c9.014-9.018 21.245-14.083 34-14.083 12.752 0 24.982 5.066 34 14.083 9.014 9.018 14.083 21.248 14.083 34s-5.069 24.982-14.083 34l-13.962 13.92 81.962 81.962c27.002 27.005 42.173 63.629 42.173 101.818 0 38.191-15.171 74.816-42.173 101.821l-10.202 10.16 102.32 102.28c4.454 4.466 7.987 9.766 10.39 15.597 2.406 5.831 3.638 12.079 3.629 18.388-0.013 6.308-1.267 12.552-3.693 18.375s-5.974 11.11-10.445 15.56l0.198 0.080zM802.16 582.042l-82.16-82.042-156 156 81.962 81.96c4.458 4.475 9.757 8.026 15.59 10.448 5.837 2.423 12.090 3.67 18.41 3.67 6.317 0 12.573-1.247 18.406-3.67s11.133-5.973 15.594-10.448l88.24-88.24c4.474-4.46 8.022-9.759 10.448-15.592 2.422-5.834 3.667-12.090 3.667-18.406 0-6.32-1.245-12.573-3.667-18.41-2.426-5.834-5.974-11.133-10.448-15.59l-0.042 0.32z" />
<glyph unicode="&#xe928;" glyph-name="pencil-simple-line" d="M920.56 677.84l-178.72 178.76c-7.43 7.432-16.25 13.328-25.958 17.35s-20.112 6.093-30.621 6.093c-10.509 0-20.915-2.070-30.624-6.093s-18.528-9.918-25.958-17.35l-493.238-493.278c-7.456-7.408-13.367-16.221-17.391-25.933-4.024-9.709-6.080-20.118-6.049-30.627v-178.762c0-21.216 8.428-41.565 23.431-56.57 15.003-15.002 35.351-23.43 56.569-23.43h178.758c10.512-0.029 20.922 2.029 30.63 6.051 9.709 4.026 18.522 9.936 25.93 17.389l493.242 493.28c14.998 15.002 23.424 35.347 23.424 56.56s-8.426 41.558-23.424 56.56zM364 144h-156v156l336 336 156-156-336-336zM768 548l-156 156 73.36 73.36 156-156-73.36-73.36z" />
<glyph unicode="&#xe929;" glyph-name="paperclip" d="M838.64 470.64c2.976-2.973 5.334-6.502 6.947-10.387 1.61-3.885 2.438-8.048 2.438-12.253s-0.829-8.371-2.438-12.256c-1.613-3.885-3.971-7.411-6.947-10.384l-328.198-328c-42.016-42.010-99.002-65.61-158.416-65.606s-116.395 23.61-158.405 65.626c-42.010 42.016-65.609 98.998-65.605 158.413 0.004 59.418 23.61 116.397 65.626 158.406l397.041 402.881c29.994 30.028 70.691 46.91 113.133 46.932 42.445 0.022 83.158-16.817 113.187-46.812 30.026-29.996 46.909-70.692 46.931-113.135s-16.816-83.158-46.813-113.184l-397.12-402.88c-18.035-18.035-42.496-28.166-68-28.166s-49.965 10.131-68 28.166c-18.035 18.035-28.167 42.493-28.167 68 0 25.504 10.132 49.965 28.167 68l333.2 338.479c2.918 3.114 6.432 5.612 10.33 7.348 3.901 1.736 8.106 2.675 12.374 2.76 4.266 0.086 8.506-0.683 12.474-2.26 3.965-1.578 7.574-3.932 10.614-6.926 3.043-2.994 5.456-6.565 7.094-10.506 1.642-3.94 2.477-8.168 2.461-12.436-0.019-4.268-0.89-8.488-2.563-12.415s-4.118-7.478-7.184-10.445l-333.238-338.842c-2.986-2.96-5.357-6.477-6.979-10.355-1.626-3.875-2.47-8.035-2.486-12.237s0.794-8.368 2.387-12.256c1.594-3.891 3.936-7.427 6.896-10.41 2.96-2.986 6.48-5.357 10.355-6.979 3.878-1.626 8.035-2.47 12.24-2.486 4.202-0.016 8.365 0.794 12.256 2.387 3.888 1.594 7.427 3.936 10.41 6.896l397.082 402.682c18.032 17.997 28.179 42.422 28.205 67.9 0.029 25.479-10.067 49.924-28.067 67.959-17.997 18.035-42.422 28.181-67.901 28.208s-49.923-10.070-67.958-28.068l-396.96-402.719c-14.871-14.848-26.672-32.48-34.729-51.888s-12.213-40.211-12.229-61.226c-0.017-21.014 4.106-41.824 12.132-61.245s19.799-37.072 34.646-51.942c14.847-14.87 32.478-26.672 51.886-34.73s40.214-12.211 61.228-12.227c21.011-0.019 41.824 4.106 61.245 12.131s37.069 19.798 51.942 34.646l328.24 328c6.019 5.974 14.17 9.315 22.653 9.283 8.483-0.029 16.608-3.427 22.586-9.443z" />
<glyph unicode="&#xe92a;" glyph-name="notification" d="M551.219 84.074c11.082 19.101 35.549 25.606 54.656 14.531 19.11-11.085 25.613-35.578 14.531-54.688-11.018-18.989-26.822-34.765-45.843-45.718l-0.032 0.029c-19.021-10.954-40.573-16.749-62.531-16.749-21.962 0-43.539 5.792-62.563 16.749-19.024 10.954-34.826 26.701-45.843 45.69-11.085 19.11-4.579 43.603 14.531 54.688 19.107 11.075 43.571 4.57 54.656-14.531 2.989-5.155 6.96-9.654 11.658-13.251l4.938-3.28c6.883-3.968 14.685-6.064 22.624-6.064s15.741 2.096 22.624 6.064c6.877 3.958 12.611 9.661 16.595 16.531zM728 618.666c0 57.288-22.771 112.212-63.283 152.719-40.506 40.499-95.437 63.281-152.717 63.281-57.286 0-112.243-22.742-152.752-63.25-40.506-40.508-63.248-95.463-63.248-152.75 0-155.226-33.309-257.949-68.875-323.155-4.068-7.459-8.195-14.384-12.25-20.845h594.249c-4.054 6.461-8.179 13.386-12.25 20.845-35.565 65.206-68.874 167.93-68.874 323.155zM105.562 267.792c-0.103-0.077-0.186-0.134-0.219-0.157 0.024 0.016 0.063 0.051 0.125 0.093l0.093 0.064zM918.531 267.728c0.061-0.042 0.102-0.077 0.125-0.093-0.032 0.022-0.115 0.080-0.218 0.157l0.093-0.064zM808 618.666c0-143.44 30.691-232.717 59.123-284.845 14.272-26.163 28.179-43.389 37.907-53.654 4.87-5.142 8.717-8.576 11.062-10.531 1.174-0.979 1.978-1.571 2.346-1.843-0.026 0.016-0.035 0.010-0.064 0.029s-0.064 0.042-0.093 0.064l-0.032 0.032c14.64-9.786 21.136-27.987 16.032-44.845-5.11-16.867-20.656-28.406-38.282-28.406h-768c-17.626 0-33.172 11.539-38.281 28.406-4.788 15.814 0.657 32.816 13.437 42.938l2.469 1.811c-0.028-0.019-0.038-0.013-0.063-0.029 0.367 0.272 1.17 0.864 2.344 1.843 2.347 1.955 6.191 5.389 11.062 10.531 9.727 10.266 23.635 27.491 37.906 53.654 28.433 52.128 59.125 141.405 59.125 284.845 0 78.505 31.177 153.802 86.687 209.313s130.807 86.687 209.313 86.687c78.502 0 153.802-31.176 209.312-86.687 55.514-55.511 86.688-130.81 86.688-209.313z" />
<glyph unicode="&#xe92b;" d="M320 800v-704h-128c-8.487 0-16.626 3.373-22.628 9.373s-9.372 14.141-9.372 22.627v640c0 8.487 3.372 16.626 9.372 22.628s14.14 9.372 22.628 9.372h128z" />
<glyph unicode="&#xe92c;" d="M736 512c0-8.486-3.373-16.627-9.373-22.627s-14.141-9.373-22.627-9.373h-256c-8.486 0-16.627 3.373-22.627 9.373s-9.373 14.141-9.373 22.627c0 8.486 3.373 16.627 9.373 22.627s14.141 9.373 22.627 9.373h256c8.486 0 16.627-3.373 22.627-9.373s9.373-14.141 9.373-22.627zM704 416h-256c-8.486 0-16.627-3.373-22.627-9.373s-9.373-14.141-9.373-22.627c0-8.486 3.373-16.627 9.373-22.627s14.141-9.373 22.627-9.373h256c8.486 0 16.627 3.373 22.627 9.373s9.373 14.141 9.373 22.627c0 8.486-3.373 16.627-9.373 22.627s-14.141 9.373-22.627 9.373zM896 768v-640c0-16.973-6.742-33.251-18.746-45.254s-28.282-18.746-45.254-18.746h-640c-16.974 0-33.252 6.742-45.255 18.746s-18.745 28.282-18.745 45.254v640c0 16.974 6.743 33.252 18.745 45.255s28.281 18.745 45.255 18.745h640c16.973 0 33.251-6.743 45.254-18.745s18.746-28.281 18.746-45.255zM192 128h96v640h-96v-640zM832 128v640h-480v-640h480z" />
<glyph unicode="&#xe92d;" glyph-name="notebook" d="M432 528c0 12.73 5.056 24.941 14.058 33.942s21.213 14.058 33.942 14.058h224c12.73 0 24.941-5.056 33.942-14.058s14.058-21.213 14.058-33.942c0-12.73-5.056-24.941-14.058-33.942s-21.213-14.058-33.942-14.058h-224c-12.73 0-24.941 5.056-33.942 14.058s-14.058 21.213-14.058 33.942zM704 416h-224c-12.73 0-24.941-5.056-33.942-14.058s-14.058-21.213-14.058-33.942c0-12.73 5.056-24.941 14.058-33.942s21.213-14.058 33.942-14.058h224c12.73 0 24.941 5.056 33.942 14.058s14.058 21.213 14.058 33.942c0 12.73-5.056 24.941-14.058 33.942s-21.213 14.058-33.942 14.058zM912 768v-640c0-21.216-8.429-41.565-23.43-56.57-15.005-15.002-35.354-23.43-56.57-23.43h-640c-21.217 0-41.566 8.429-56.569 23.43-15.003 15.005-23.431 35.354-23.431 56.57v640c0 21.217 8.428 41.566 23.431 56.569s35.351 23.431 56.569 23.431h640c21.216 0 41.565-8.428 56.57-23.431 15.002-15.003 23.43-35.351 23.43-56.569zM208 144h64v608h-64v-608zM816 752h-448v-608h448v608z" />
<glyph unicode="&#xe92e;" glyph-name="minus" d="M160 494h704c12.198 0 23.904-4.842 32.531-13.469s13.469-20.333 13.469-32.531c0-12.198-4.842-23.904-13.469-32.531s-20.333-13.469-32.531-13.469h-704c-12.2 0-23.905 4.842-32.531 13.469s-13.469 20.333-13.469 32.531c0 12.198 4.842 23.904 13.469 32.531s20.331 13.469 32.531 13.469z" />
<glyph unicode="&#xe92f;" glyph-name="magnifying-glass" d="M929.962 97.958l-189.962 190.042c56.957 74.221 83.549 167.328 74.381 260.435-9.168 93.105-53.408 179.238-123.747 240.925s-161.507 94.309-255.014 91.249c-93.504-3.060-182.346-41.574-248.5-107.728s-104.668-154.996-107.728-248.5c-3.060-93.507 29.562-184.675 91.249-255.014s147.82-114.579 240.925-123.747c93.107-9.168 186.214 17.424 260.435 74.381l190.122-190.16c4.464-4.464 9.763-8.006 15.597-10.422s12.086-3.661 18.403-3.661c6.314 0 12.566 1.245 18.4 3.661s11.133 5.958 15.6 10.422c4.464 4.464 8.006 9.766 10.422 15.6s3.661 12.086 3.661 18.4c0 6.314-1.245 12.566-3.661 18.4s-5.958 11.136-10.422 15.6l-0.16 0.118zM176 512c0 53.795 15.953 106.384 45.84 151.115s72.368 79.593 122.070 100.18c49.702 20.587 104.39 25.974 157.155 15.478 52.762-10.495 101.229-36.401 139.267-74.44 38.042-38.040 63.946-86.506 74.442-139.267 10.496-52.765 5.107-107.453-15.478-157.155-20.589-49.702-55.45-92.182-100.179-122.070-44.733-29.888-97.318-45.84-151.117-45.84-72.115 0.074-141.257 28.755-192.251 79.747-50.994 50.995-79.675 120.138-79.749 192.253z" />
<glyph unicode="&#xe930;" d="M822.4 322.358l32.278-130.358-118.678 69.84-118.678-69.84 32.278 130.358-105.6 87.2 138.598 10.682 53.402 123.76 53.402-123.76 138.598-10.682-105.6-87.2z" />
<glyph unicode="&#xe931;" d="M128 704c0 8.487 3.372 16.626 9.372 22.628s14.14 9.372 22.628 9.372h704c8.486 0 16.627-3.372 22.627-9.372s9.373-14.14 9.373-22.628c0-8.487-3.373-16.626-9.373-22.628s-14.141-9.372-22.627-9.372h-704c-8.487 0-16.626 3.372-22.628 9.372s-9.372 14.14-9.372 22.628zM160 416h224c8.486 0 16.627 3.373 22.627 9.373s9.373 14.141 9.373 22.627c0 8.486-3.373 16.627-9.373 22.627s-14.141 9.373-22.627 9.373h-224c-8.487 0-16.626-3.373-22.628-9.373s-9.372-14.141-9.372-22.627c0-8.486 3.372-16.627 9.372-22.627s14.14-9.373 22.628-9.373zM448 224h-288c-8.487 0-16.626-3.373-22.628-9.373s-9.372-14.141-9.372-22.627c0-8.486 3.372-16.627 9.372-22.627s14.14-9.373 22.628-9.373h288c8.486 0 16.627 3.373 22.627 9.373s9.373 14.141 9.373 22.627c0 8.486-3.373 16.627-9.373 22.627s-14.141 9.373-22.627 9.373zM948.358 384.88l-90.077-74.358 27.437-110.842c1.507-6.112 1.174-12.531-0.95-18.454s-5.952-11.088-10.998-14.851c-5.046-3.76-11.088-5.949-17.373-6.294s-12.531 1.171-17.955 4.362l-102.442 60.278-102.442-60.278c-5.424-3.19-11.67-4.707-17.955-4.362s-12.326 2.534-17.373 6.294c-5.046 3.763-8.874 8.928-10.998 14.851s-2.458 12.342-0.95 18.454l27.398 110.842-90.038 74.358c-4.912 4.061-8.496 9.494-10.301 15.606-1.802 6.112-1.738 12.624 0.182 18.698 1.92 6.077 5.61 11.44 10.598 15.405s11.046 6.352 17.398 6.851l119.36 9.238 45.718 106c2.474 5.75 6.573 10.65 11.798 14.090 5.226 3.443 11.347 5.277 17.603 5.277s12.378-1.834 17.603-5.277c5.226-3.44 9.325-8.339 11.798-14.090l45.718-106 119.36-9.238c6.352-0.499 12.41-2.886 17.398-6.851s8.678-9.328 10.598-15.405c1.92-6.074 1.984-12.586 0.182-18.698s-5.389-11.546-10.301-15.606zM846.48 383.76l-59.562 4.598c-5.808 0.448-11.386 2.47-16.131 5.856-4.742 3.382-8.474 7.997-10.787 13.344l-24 55.68-24-55.68c-2.314-5.347-6.045-9.962-10.787-13.344-4.746-3.386-10.323-5.408-16.131-5.856l-59.562-4.598 44.442-36.72c4.653-3.837 8.128-8.909 10.026-14.634s2.138-11.872 0.691-17.728l-14-56.477 53.082 31.238c4.922 2.899 10.528 4.426 16.24 4.426s11.318-1.526 16.24-4.426l53.082-31.238-14 56.477c-1.446 5.856-1.206 12.003 0.691 17.728s5.373 10.797 10.026 14.634l44.442 36.72z" />
<glyph unicode="&#xe932;" glyph-name="list-star" d="M112 704c0 12.73 5.057 24.94 14.059 33.941s21.211 14.059 33.941 14.059h704c12.73 0 24.941-5.057 33.942-14.059s14.058-21.211 14.058-33.941c0-12.73-5.056-24.94-14.058-33.941s-21.213-14.059-33.942-14.059h-704c-12.73 0-24.94 5.057-33.941 14.059s-14.059 21.211-14.059 33.941zM160 400h192c12.73 0 24.941 5.056 33.942 14.058s14.058 21.213 14.058 33.942c0 12.73-5.056 24.941-14.058 33.942s-21.213 14.058-33.942 14.058h-192c-12.73 0-24.94-5.056-33.941-14.058s-14.059-21.213-14.059-33.942c0-12.73 5.057-24.941 14.059-33.942s21.211-14.058 33.941-14.058zM416 240h-256c-12.73 0-24.94-5.056-33.941-14.058s-14.059-21.213-14.059-33.942c0-12.73 5.057-24.941 14.059-33.942s21.211-14.058 33.941-14.058h256c12.73 0 24.941 5.056 33.942 14.058s14.058 21.213 14.058 33.942c0 12.73-5.056 24.941-14.058 33.942s-21.213 14.058-33.942 14.058zM958.56 372.522l-82.32-68 24.998-101.043c2.262-9.168 1.77-18.8-1.414-27.686-3.187-8.89-8.925-16.643-16.496-22.288-7.568-5.645-16.637-8.931-26.064-9.446-9.43-0.518-18.803 1.76-26.944 6.541l-94.32 55.562-94.32-55.52c-8.141-4.784-17.514-7.059-26.944-6.544-9.427 0.518-18.496 3.805-26.064 9.45-7.571 5.642-13.309 13.395-16.496 22.285-3.184 8.89-3.677 18.522-1.414 27.69l24.998 101.040-82.32 68c-7.382 6.093-12.774 14.25-15.482 23.43-2.71 9.178-2.614 18.957 0.275 28.083 2.89 9.123 8.438 17.174 15.939 23.12 7.498 5.946 16.605 9.514 26.147 10.246l109.68 8.48 42 97.082c3.734 8.563 9.885 15.85 17.702 20.97 7.814 5.12 16.954 7.846 26.298 7.846s18.483-2.726 26.298-7.846c7.818-5.12 13.968-12.406 17.702-20.97l41.92-97.12 109.68-8.483c9.542-0.73 18.65-4.298 26.147-10.243 7.501-5.946 13.050-14 15.939-23.123s2.986-18.902 0.275-28.083c-2.707-9.178-8.099-17.338-15.482-23.427h0.080zM805.718 370.842l-20 1.558c-8.714 0.675-17.078 3.718-24.192 8.803-7.114 5.082-12.704 12.010-16.166 20.035l-9.322 21.603-9.318-21.603c-3.466-8.032-9.062-14.963-16.182-20.045-7.12-5.085-15.494-8.125-24.218-8.794l-20-1.558 13.92-11.482c6.963-5.76 12.16-13.37 14.992-21.955 2.829-8.582 3.181-17.792 1.008-26.563l-4.838-19.562 20.278 12c7.389 4.323 15.798 6.602 24.358 6.602 8.563 0 16.973-2.278 24.362-6.602l20.278-12-4.678 19.562c-2.173 8.771-1.821 17.981 1.008 26.563 2.832 8.586 8.029 16.195 14.992 21.955l13.718 11.482z" />
<glyph unicode="&#xe933;" d="M864 704v-512h-448v512h448z" />
<glyph unicode="&#xe934;" d="M896 448c0-8.486-3.373-16.627-9.373-22.627s-14.141-9.373-22.627-9.373h-448c-8.486 0-16.627 3.373-22.627 9.373s-9.373 14.141-9.373 22.627c0 8.486 3.373 16.627 9.373 22.627 6 6.003 14.141 9.373 22.627 9.373h448c8.486 0 16.627-3.37 22.627-9.373 6-6 9.373-14.141 9.373-22.627zM416 672.001h448c8.486 0 16.627 3.371 22.627 9.372s9.373 14.14 9.373 22.628c0 8.487-3.373 16.626-9.373 22.627s-14.141 9.373-22.627 9.373h-448c-8.486 0-16.627-3.372-22.627-9.373s-9.373-14.14-9.373-22.627c0-8.487 3.373-16.626 9.373-22.628s14.141-9.372 22.627-9.372zM864 224h-448c-8.486 0-16.627-3.37-22.627-9.373-6-6-9.373-14.141-9.373-22.627s3.373-16.627 9.373-22.627c6-6 14.141-9.373 22.627-9.373h448c8.486 0 16.627 3.373 22.627 9.373s9.373 14.141 9.373 22.627c0 8.486-3.373 16.627-9.373 22.627-6 6.003-14.141 9.373-22.627 9.373zM174.32 739.361l17.68 8.88v-204.241c0-8.486 3.372-16.627 9.373-22.627s14.14-9.373 22.627-9.373c8.487 0 16.626 3.373 22.628 9.373s9.372 14.141 9.372 22.627v256.001c0.004 5.457-1.388 10.825-4.043 15.593s-6.486 8.777-11.128 11.647c-4.642 2.87-9.94 4.505-15.392 4.75s-10.876-0.908-15.756-3.35l-64-32c-7.596-3.798-13.372-10.458-16.057-18.514-1.33-3.989-1.86-8.201-1.563-12.396s1.42-8.289 3.3-12.050c1.881-3.761 4.484-7.115 7.66-9.87s6.865-4.858 10.854-6.187c8.057-2.686 16.85-2.061 24.446 1.737zM319.080 333.12c-1.769 12.675-6.083 24.861-12.682 35.824s-15.347 20.48-25.718 27.978c-20.772 15.082-46.572 21.549-72.002 18.045s-48.52-16.707-64.438-36.845c-6.084-7.814-10.903-16.534-14.28-25.84-1.763-4.006-2.686-8.333-2.711-12.71s0.848-8.714 2.566-12.739c1.718-4.026 4.243-7.658 7.42-10.669s6.938-5.338 11.050-6.838c4.113-1.501 8.489-2.141 12.859-1.878 4.37 0.259 8.64 1.411 12.546 3.386s7.366 4.733 10.164 8.096c2.799 3.366 4.877 7.27 6.106 11.472 1.12 3.069 2.713 5.942 4.72 8.522 5.645 7.034 13.784 11.619 22.725 12.803s17.994-1.123 25.275-6.445c3.503-2.477 6.465-5.642 8.707-9.299s3.716-7.734 4.333-11.981c0.565-4.077 0.3-8.227-0.78-12.202-1.079-3.971-2.95-7.686-5.5-10.918-0.116-0.138-0.223-0.285-0.32-0.438l-114.76-153.28c-3.556-4.758-5.718-10.41-6.244-16.326s0.605-11.862 3.266-17.171c2.661-5.312 6.748-9.776 11.802-12.896 5.054-3.117 10.877-4.768 16.816-4.768h128c8.487 0 16.627 3.373 22.628 9.373s9.372 14.141 9.372 22.627c0 8.486-3.371 16.627-9.372 22.627-6.001 6.003-14.14 9.373-22.628 9.373h-64l76.32 102.122c7.738 9.965 13.387 21.389 16.611 33.587 3.223 12.202 3.953 24.925 2.149 37.411z" />
<glyph unicode="&#xe935;" glyph-name="list-numbers" d="M912 448c0-12.73-5.056-24.938-14.058-33.942-9.002-9.002-21.213-14.058-33.942-14.058h-400c-12.73 0-24.941 5.056-33.942 14.058-9.002 9.005-14.058 21.213-14.058 33.942s5.056 24.941 14.058 33.942c9.002 9.002 21.213 14.058 33.942 14.058h400c12.73 0 24.941-5.056 33.942-14.058s14.058-21.213 14.058-33.942zM464 656h400c12.73 0 24.941 5.057 33.942 14.059s14.058 21.211 14.058 33.941c0 12.73-5.056 24.939-14.058 33.941s-21.213 14.059-33.942 14.059h-400c-12.73 0-24.941-5.057-33.942-14.059s-14.058-21.211-14.058-33.941c0-12.731 5.056-24.94 14.058-33.941s21.213-14.059 33.942-14.059zM864 240h-400c-12.73 0-24.941-5.056-33.942-14.058s-14.058-21.213-14.058-33.942c0-12.73 5.056-24.938 14.058-33.942 9.002-9.002 21.213-14.058 33.942-14.058h400c12.73 0 24.941 5.056 33.942 14.058 9.002 9.005 14.058 21.213 14.058 33.942s-5.056 24.941-14.058 33.942c-9.002 9.002-21.213 14.058-33.942 14.058zM176 722.76v-178.76c0-12.73 5.057-24.938 14.059-33.942 9.002-9.002 21.211-14.058 33.941-14.058s24.939 5.056 33.941 14.058c9.002 9.005 14.059 21.213 14.059 33.942v256c-0.004 8.177-2.098 16.218-6.082 23.359s-9.726 13.146-16.682 17.445c-6.956 4.3-14.895 6.75-23.063 7.121s-16.297-1.353-23.613-5.005l-64-32c-10.594-5.646-18.688-15.058-22.685-26.378s-3.607-23.727 1.092-34.774c4.7-11.047 13.369-19.931 24.296-24.901s23.321-5.665 34.736-1.948v-0.16zM334.918 335.322c-2.054 14.8-7.085 29.030-14.784 41.837s-17.908 23.923-30.014 32.682c-24.135 17.517-54.108 25.027-83.652 20.957s-56.369-19.405-74.868-42.797c-7.099-9.123-12.727-19.299-16.68-30.16-4.168-11.917-3.473-24.995 1.934-36.403s15.091-20.227 26.953-24.547c11.863-4.317 24.949-3.789 36.425 1.472s20.417 14.832 24.887 26.64c0.575 1.437 1.357 2.784 2.32 4 3.101 3.754 7.518 6.182 12.35 6.794 4.832 0.608 9.714-0.646 13.65-3.514 1.732-1.197 3.198-2.739 4.306-4.528 1.108-1.792 1.835-3.789 2.134-5.872 0.268-1.962 0.133-3.955-0.396-5.859s-1.443-3.683-2.684-5.222l-0.52-0.678-114.72-153.402c-5.328-7.133-8.566-15.61-9.353-24.48-0.787-8.867 0.909-17.782 4.898-25.741 3.988-7.962 10.113-14.656 17.688-19.334 7.575-4.682 16.303-7.162 25.207-7.165h128c12.73 0 24.939 5.056 33.942 14.058 9.002 9.005 14.058 21.213 14.058 33.942s-5.056 24.941-14.058 33.942c-9.003 9.002-21.212 14.058-33.942 14.058h-32l57.12 76.442c8.998 11.651 15.565 24.989 19.309 39.226 3.747 14.237 4.592 29.082 2.49 43.654z" />
<glyph unicode="&#xe936;" glyph-name="list-dashes" d="M336 704c0 12.73 5.056 24.94 14.058 33.941s21.213 14.059 33.942 14.059h480c12.73 0 24.941-5.057 33.942-14.059s14.058-21.211 14.058-33.941c0-12.73-5.056-24.94-14.058-33.941s-21.213-14.059-33.942-14.059h-480c-12.73 0-24.941 5.057-33.942 14.059s-14.058 21.211-14.058 33.941zM864 496h-480c-12.73 0-24.941-5.056-33.942-14.058s-14.058-21.213-14.058-33.942c0-12.73 5.056-24.941 14.058-33.942s21.213-14.058 33.942-14.058h480c12.73 0 24.941 5.056 33.942 14.058s14.058 21.213 14.058 33.942c0 12.73-5.056 24.941-14.058 33.942s-21.213 14.058-33.942 14.058zM864 240h-480c-12.73 0-24.941-5.056-33.942-14.058s-14.058-21.213-14.058-33.942c0-12.73 5.056-24.941 14.058-33.942s21.213-14.058 33.942-14.058h480c12.73 0 24.941 5.056 33.942 14.058s14.058 21.213 14.058 33.942c0 12.73-5.056 24.941-14.058 33.942s-21.213 14.058-33.942 14.058zM224 752h-64c-12.73 0-24.94-5.057-33.941-14.059s-14.059-21.211-14.059-33.941c0-12.73 5.057-24.94 14.059-33.941s21.211-14.059 33.941-14.059h64c12.73 0 24.94 5.057 33.941 14.059s14.059 21.211 14.059 33.941c0 12.73-5.057 24.94-14.059 33.941s-21.211 14.059-33.941 14.059zM224 496h-64c-12.73 0-24.94-5.056-33.941-14.058s-14.059-21.213-14.059-33.942c0-12.73 5.057-24.941 14.059-33.942s21.211-14.058 33.941-14.058h64c12.73 0 24.94 5.056 33.941 14.058s14.059 21.213 14.059 33.942c0 12.73-5.057 24.941-14.059 33.942s-21.211 14.058-33.941 14.058zM224 240h-64c-12.73 0-24.94-5.056-33.941-14.058s-14.059-21.213-14.059-33.942c0-12.73 5.057-24.941 14.059-33.942s21.211-14.058 33.941-14.058h64c12.73 0 24.94 5.056 33.941 14.058s14.059 21.213 14.059 33.942c0 12.73-5.057 24.941-14.059 33.942s-21.211 14.058-33.941 14.058z" />
<glyph unicode="&#xe937;" glyph-name="list-checks" d="M912 448c0-12.73-5.056-24.941-14.058-33.942s-21.213-14.058-33.942-14.058h-352c-12.73 0-24.938 5.056-33.942 14.058-9.002 9.002-14.058 21.213-14.058 33.942s5.056 24.941 14.058 33.942c9.005 9.002 21.213 14.058 33.942 14.058h352c12.73 0 24.941-5.056 33.942-14.058s14.058-21.213 14.058-33.942zM512 656h352c12.73 0 24.941 5.057 33.942 14.059s14.058 21.211 14.058 33.941c0 12.731-5.056 24.94-14.058 33.941s-21.213 14.059-33.942 14.059h-352c-12.73 0-24.938-5.057-33.942-14.059-9.002-9.002-14.058-21.211-14.058-33.941s5.056-24.939 14.058-33.941c9.005-9.002 21.213-14.059 33.942-14.059zM864 240h-352c-12.73 0-24.938-5.056-33.942-14.058-9.002-9.005-14.058-21.213-14.058-33.942s5.056-24.941 14.058-33.942c9.005-9.002 21.213-14.058 33.942-14.058h352c12.73 0 24.941 5.056 33.942 14.058s14.058 21.213 14.058 33.942c0 12.73-5.056 24.938-14.058 33.942-9.002 9.002-21.213 14.058-33.942 14.058zM318.040 801.96l-94.040-93.96-30.040 30.080c-9.018 9.018-21.248 14.084-34 14.084s-24.983-5.066-34-14.084c-9.018-9.017-14.084-21.247-14.084-34s5.066-24.982 14.084-34l64-64c4.459-4.474 9.758-8.026 15.593-10.448s12.090-3.67 18.407-3.67c6.317 0 12.573 1.248 18.407 3.67s11.133 5.974 15.593 10.448l128.001 128c9.014 9.018 14.083 21.248 14.083 34s-5.069 24.983-14.083 34c-9.018 9.018-21.248 14.084-34 14.084-12.755 0-24.986-5.066-34.001-14.084l0.080-0.12zM318.040 545.958l-94.040-93.958-30.040 30.080c-9.018 9.018-21.248 14.083-34 14.083s-24.983-5.066-34-14.083c-9.018-9.018-14.084-21.248-14.084-34s5.066-24.982 14.084-34l64-64c4.459-4.474 9.758-8.026 15.593-10.448s12.090-3.67 18.407-3.67c6.317 0 12.573 1.248 18.407 3.67s11.133 5.974 15.593 10.448l128.001 128c9.014 9.018 14.083 21.248 14.083 34s-5.069 24.982-14.083 34c-9.018 9.018-21.248 14.083-34 14.083-12.755 0-24.986-5.066-34.001-14.083l0.080-0.122zM318.040 289.958l-94.040-93.958-30.040 30.080c-4.465 4.464-9.766 8.006-15.599 10.422s-12.086 3.661-18.401 3.661c-6.315 0-12.567-1.245-18.401-3.661s-11.134-5.958-15.599-10.422c-4.465-4.464-8.007-9.766-10.423-15.6s-3.66-12.086-3.66-18.4c0-6.314 1.244-12.566 3.66-18.4s5.958-11.136 10.423-15.6l64-64c4.459-4.474 9.758-8.026 15.593-10.448s12.090-3.67 18.407-3.67c6.317 0 12.573 1.248 18.407 3.67s11.133 5.974 15.593 10.448l128.001 128c9.014 9.018 14.083 21.248 14.083 34s-5.069 24.982-14.083 34c-9.018 9.018-21.248 14.083-34 14.083-12.755 0-24.986-5.066-34.001-14.083l0.080-0.122z" />
<glyph unicode="&#xe938;" glyph-name="link-1" d="M435.014 622.298c37.862-2.71 74.688-13.552 108-31.75s62.323-43.354 85.062-73.747c10.586-14.15 7.709-34.195-6.438-44.784-14.15-10.586-34.224-7.712-44.813 6.438-17.238 23.046-39.213 42.138-64.467 55.939-25.258 13.798-53.197 22.003-81.907 24.061s-57.533-2.096-84.499-12.157c-23.597-8.8-45.312-21.93-64-38.717l-7.812-7.437-139.25-139.251-6.656-7.251c-32.345-36.954-50.116-84.598-49.687-133.936 0.459-52.627 21.568-102.97 58.781-140.189 37.213-37.21 87.562-58.32 140.188-58.781 52.633-0.458 103.363 19.779 141.219 56.342l79.187 79.19c12.496 12.496 32.755 12.496 45.251 0 12.493-12.499 12.496-32.755 0-45.251l-79.594-79.594c-0.131-0.131-0.275-0.25-0.406-0.374-49.926-48.221-116.784-74.915-186.188-74.314-69.41 0.605-135.823 28.451-184.906 77.533-49.076 49.078-76.925 115.469-77.531 184.874-0.603 69.411 26.092 136.291 74.312 186.218l0.375 0.406 139.656 139.626c26.835 26.845 59.124 47.61 94.688 60.877s73.574 18.742 111.437 16.029zM741.763 945.455c69.408-0.603 135.824-28.45 184.909-77.531 49.078-49.083 76.925-115.497 77.53-184.907 0.602-69.404-26.096-136.262-74.314-186.188-0.125-0.128-0.246-0.275-0.374-0.406l-139.654-139.622c-26.835-26.838-59.12-47.613-94.688-60.877-35.568-13.267-73.571-18.742-111.437-16.032-37.862 2.714-74.717 13.549-108.032 31.75-33.306 18.202-62.298 43.36-85.030 73.75-10.586 14.15-7.712 34.195 6.435 44.781 14.154 10.586 34.227 7.683 44.813-6.467 17.235-23.037 39.219-42.106 64.47-55.907 25.254-13.798 53.2-22.006 81.904-24.061 28.714-2.058 57.53 2.093 84.502 12.154 26.963 10.058 51.459 25.802 71.811 46.157l139.626 139.626c36.323 37.814 56.426 88.362 55.968 140.812-0.461 52.626-21.571 102.975-58.781 140.188-37.216 37.213-87.568 58.32-140.189 58.781-52.477 0.456-103.085-19.636-140.906-56l0.032-0.031-80.064-79.594c-12.531-12.453-32.79-12.375-45.248 0.156-12.454 12.534-12.406 32.792 0.125 45.25l80.061 79.594c0.109 0.107 0.237 0.207 0.346 0.312 49.923 48.216 116.781 74.913 186.186 74.313z" />
<glyph unicode="&#xe939;" glyph-name="link" d="M960 607.078c-1.606-55.706-24.512-108.675-64-148l-139.002-139.078c-20.243-20.355-44.323-36.493-70.848-47.478-26.522-10.986-54.963-16.602-83.67-16.522h-0.202c-29.197 0.019-58.096 5.891-84.986 17.27-26.893 11.376-51.229 28.026-71.578 48.966s-36.294 45.747-46.893 72.954c-10.602 27.206-15.642 56.262-14.822 85.45 0.24 8.486 3.84 16.531 10.010 22.365 6.17 5.83 14.403 8.973 22.89 8.736 8.486-0.24 16.531-3.84 22.365-10.010s8.976-14.403 8.736-22.893c-0.582-20.637 2.976-41.181 10.47-60.419 7.491-19.238 18.762-36.778 33.149-51.584 14.387-14.81 31.594-26.582 50.608-34.627s39.446-12.195 60.093-12.208c20.294-0.051 40.397 3.92 59.149 11.683 18.749 7.766 35.776 19.171 50.090 33.555l139.002 139.002c28.678 29.040 44.704 68.246 44.576 109.059s-16.397 79.919-45.258 108.779c-28.861 28.86-67.965 45.13-108.778 45.257-40.816 0.128-80.022-15.897-109.062-44.576l-44-44c-6.048-5.748-14.106-8.905-22.448-8.798-8.346 0.107-16.317 3.469-22.218 9.37s-9.264 13.873-9.37 22.218c-0.109 8.344 3.050 16.4 8.797 22.45l44 44c20.301 20.307 44.4 36.416 70.928 47.406s54.96 16.647 83.67 16.647c28.714 0 57.146-5.657 83.674-16.647s50.627-27.099 70.928-47.406c21.027-21.078 37.542-46.215 48.547-73.879 11.002-27.665 16.259-57.279 15.453-87.042zM436 217.36l-44-44c-14.352-14.448-31.43-25.898-50.246-33.683-18.816-7.789-38.991-11.757-59.354-11.677-30.548 0.026-60.403 9.104-85.794 26.090s-45.176 41.114-56.858 69.341c-11.682 28.227-14.735 59.28-8.774 89.242s20.669 57.482 42.265 79.088l138.76 138.998c21.856 21.971 49.811 36.864 80.24 42.742 30.426 5.878 61.92 2.47 90.384-9.779 28.467-12.25 52.592-32.774 69.245-58.909 16.65-26.138 25.059-56.678 24.131-87.654-0.24-8.486 2.902-16.72 8.736-22.89s13.878-9.77 22.365-10.010c8.486-0.237 16.72 2.906 22.89 8.736 6.17 5.834 9.77 13.878 10.010 22.365 0.768 29.715-4.509 59.277-15.51 86.89s-27.498 52.704-48.49 73.75c-40.992 40.976-96.579 63.994-154.541 63.994-57.958 0-113.547-23.018-154.539-63.994l-138.92-139.002c-30.551-30.538-51.364-69.446-59.808-111.808-8.444-42.365-4.141-86.282 12.365-126.198s44.476-74.048 80.374-98.074c35.898-24.029 78.112-36.877 121.308-36.918 28.715-0.083 57.162 5.53 83.69 16.515 26.531 10.986 50.621 27.126 70.87 47.485l44 44c5.178 6.099 7.885 13.917 7.584 21.914s-3.587 15.59-9.21 21.283c-5.626 5.693-13.174 9.072-21.168 9.472-7.99 0.4-15.843-2.208-22.006-7.309z" />
<glyph unicode="&#xe93a;" glyph-name="lightbulb-fill" d="M704 32c0-8.486-3.373-16.627-9.373-22.627-6-6.003-14.141-9.373-22.627-9.373h-320c-8.486 0-16.627 3.37-22.627 9.373-6 6-9.373 14.141-9.373 22.627s3.373 16.627 9.373 22.627c6 6 14.141 9.373 22.627 9.373h320c8.486 0 16.627-3.373 22.627-9.373s9.373-14.141 9.373-22.627zM864 544c0.138-53.347-11.914-106.019-35.232-153.997-23.322-47.978-57.296-89.997-99.328-122.845-7.859-6.022-14.237-13.766-18.646-22.63-4.41-8.867-6.733-18.627-6.794-28.528v-24c0-16.976-6.742-33.254-18.746-45.254-12.003-12.003-28.282-18.746-45.254-18.746h-256c-16.973 0-33.251 6.742-45.254 18.746-12.003 12-18.746 28.278-18.746 45.254v24c-0.006 9.782-2.256 19.437-6.576 28.214s-10.595 16.451-18.344 22.426c-41.928 32.653-75.878 74.419-99.281 122.131s-35.645 100.125-35.799 153.267c-1.040 190.641 153.040 349.401 343.52 353.961 46.934 1.131 93.619-7.138 137.309-24.321 43.693-17.183 83.504-42.932 117.094-75.731 33.587-32.8 60.278-71.987 78.496-115.256s27.594-89.745 27.581-136.692zM735.562 581.36c-8.298 46.349-30.598 89.041-63.894 122.332-33.299 33.291-75.997 55.58-122.346 63.868-4.147 0.699-8.387 0.574-12.483-0.366s-7.968-2.679-11.392-5.116c-3.424-2.436-6.336-5.524-8.57-9.085-2.23-3.562-3.738-7.528-4.435-11.673-0.701-4.144-0.576-8.386 0.365-12.483s2.678-7.967 5.117-11.392c2.435-3.425 5.523-6.336 9.085-8.567s7.526-3.74 11.674-4.438c66.278-11.16 122.518-67.399 133.76-133.799 1.264-7.453 5.13-14.218 10.906-19.094s13.094-7.549 20.653-7.546c1.808 0.010 3.613 0.157 5.402 0.438 8.362 1.43 15.818 6.122 20.723 13.043 4.906 6.925 6.861 15.514 5.437 23.878z" />
<glyph unicode="&#xe93b;" glyph-name="layout" d="M864 816h-704c-21.217 0-41.566-8.428-56.569-23.431s-23.431-35.351-23.431-56.569v-576c0-21.216 8.428-41.565 23.431-56.57 15.003-15.002 35.351-23.43 56.569-23.43h704c21.216 0 41.565 8.429 56.57 23.43 15.002 15.005 23.43 35.354 23.43 56.57v576c0 21.217-8.429 41.566-23.43 56.569-15.005 15.003-35.354 23.431-56.57 23.431zM848 720v-128h-672v128h672zM176 496h192v-320h-192v320zM464 176v320h384v-320h-384z" />
<glyph unicode="&#xe93c;" glyph-name="key" d="M940.806 601.613c-0.006 151.981-123.203 275.183-275.187 275.188-151.984 0-275.213-123.204-275.219-275.188 0-12.579 0.842-24.96 2.467-37.062 1.462-10.861 2.685-19.92 3.376-27.094 0.662-6.858 1.168-14.589 0.093-22.093-1.603-11.213-4.221-18.925-9.747-28.813-4.643-8.298-11.59-15.92-19.251-23.686l-269.5-269.501c-9.886-9.882-11.053-11.347-11.781-12.531-0.527-0.861-0.991-1.76-1.375-2.688l-0.937-2.874c-0.324-1.354-0.531-3.174-0.531-17.187v-88.97l0.094-18.47c0.077-5.034 0.216-9.091 0.5-12.56 0.267-3.264 0.612-5.309 0.906-6.563l0.594-1.843 1.562-2.563c1.771-2.438 4.124-4.426 6.844-5.814 0.213-0.109 1.848-0.963 8.406-1.498 6.929-0.566 16.148-0.595 31-0.595h90.906v70.406c0.007 17.667 14.331 32 32 32h70.375v70.374c0 17.67 14.333 31.994 32 32h89.155l71.469 71.501c10.605 10.605 20.464 20.906 31.533 27.094 9.869 5.51 17.6 8.115 28.813 9.718l5.654 0.531c5.67 0.291 11.322-0.096 16.47-0.595 7.171-0.691 16.208-1.914 27.062-3.373 12.106-1.629 24.483-2.47 37.062-2.47 151.987 0.006 275.187 123.235 275.187 275.219zM736.026 601.613c-0.003 18.064-6.877 36.032-20.627 49.782-13.754 13.753-31.715 20.592-49.779 20.594-17.67 0-31.994 14.333-32 32 0 17.673 14.326 32 32 32 32.198-0.002 64.47-11.539 90-34.594l5.030-4.75c26.234-26.235 39.373-60.692 39.376-95.032 0-17.667-14.333-31.99-32-32-17.674 0-32 14.326-32 32zM1004.806 601.613c0-187.331-151.853-339.213-339.187-339.219-15.437 0-30.666 1.024-45.594 3.034-11.363 1.526-18.992 2.573-24.688 3.123-6 0.579-7.35 0.339-6.877 0.406-2.563-0.365-3.322-0.627-3.498-0.688l-3.158-1.562c-1.328-0.742-3.686-2.656-17.498-16.47l-80.877-80.874c-6-5.997-14.141-9.376-22.624-9.376h-70.406v-70.374c0-17.674-14.326-32-32-32h-70.375v-70.406c0-17.667-14.333-31.994-32-32h-122.906c-13.804 0-26.079-0.016-36.219 0.813-10.514 0.861-21.513 2.781-32.25 8.25-15.647 7.974-28.364 20.71-36.344 36.374-5.471 10.739-7.422 21.734-8.281 32.253-0.414 5.062-0.621 10.662-0.719 16.717l-0.094 19.501v88.97c0 10.989-0.19 21.696 2.313 32.125 2.039 8.499 5.381 16.624 9.938 24.061l4.594 6.563c4.899 6.31 10.695 11.946 16.531 17.782l261.656 261.654c13.817 13.818 15.724 16.202 16.47 17.533 1.264 2.266 1.533 2.973 1.594 3.155 0.061 0.179 0.288 0.906 0.656 3.469-0.064-0.442 0.17 0.944-0.406 6.906-0.55 5.696-1.568 13.328-3.094 24.688-2.006 14.922-3.062 30.15-3.062 45.594 0.006 187.33 151.891 339.188 339.219 339.188 187.331-0.004 339.181-151.861 339.187-339.188z" />
<glyph unicode="&#xe93d;" glyph-name="invoice" d="M940.464 699.484c0 38.276-0.038 64.973-2.189 85.75-2.093 20.22-5.994 32.261-12.157 41.812-12.938 20.055-34.352 37.419-62.125 48.594-14.467 5.819-32.333 9.244-59.562 11-27.398 1.767-62.237 1.781-110.374 1.781h-364.096c-48.136 0-82.974-0.014-110.374-1.781-27.23-1.756-45.097-5.181-59.563-11-27.771-11.174-49.179-28.535-62.125-48.594-6.163-9.551-10.064-21.593-12.156-41.812-2.149-20.776-2.187-47.474-2.187-85.75v-467.062c0-38.278 0.038-64.973 2.187-85.75 2.093-20.224 5.992-32.262 12.156-41.811 12.946-20.061 34.354-37.421 62.125-48.595 14.466-5.818 32.333-9.245 59.563-10.998 27.4-1.77 62.238-1.782 110.374-1.782h364.096c48.138 0 82.976 0.013 110.374 1.782 27.229 1.754 45.094 5.178 59.562 10.998 27.773 11.174 49.187 28.538 62.125 48.595l2.189 3.718c4.906 8.976 8.138 20.397 9.968 38.093 2.15 20.778 2.189 47.472 2.189 85.75v467.062zM398.243 357.891c14.72-0.006 26.65-11.939 26.656-26.656 0-14.726-11.933-26.682-26.656-26.688h-113.78c-14.728 0-26.688 11.958-26.688 26.688 0.008 14.72 11.965 26.656 26.688 26.656h113.78zM625.776 537.546c14.726 0 26.688-11.958 26.688-26.685-0.006-14.726-11.965-26.659-26.688-26.659h-341.313c-14.725 0-26.683 11.933-26.688 26.659 0 14.726 11.96 26.685 26.688 26.685h341.313zM739.555 717.172c14.73 0 26.688-11.929 26.688-26.656s-11.958-26.656-26.688-26.656h-455.092c-14.727 0-26.687 11.929-26.688 26.656s11.96 26.656 26.688 26.656h455.092zM993.776 232.422c0-37.174 0.032-67.094-2.47-91.251-2.557-24.704-7.942-45.952-20.374-65.219-19.77-30.643-50.586-54.525-87.030-69.187-22.042-8.867-46.346-12.803-76.032-14.717-29.517-1.904-66.368-1.875-113.811-1.875h-364.096c-47.44 0-84.295-0.029-113.811 1.875-29.685 1.914-53.991 5.853-76.031 14.717-36.445 14.662-67.257 38.55-87.031 69.187-12.431 19.267-17.818 40.515-20.375 65.219-2.5 24.157-2.469 54.077-2.469 91.251v467.062c0 37.172-0.031 67.094 2.469 91.25 2.557 24.712 7.939 45.98 20.375 65.25 19.775 30.637 50.59 54.496 87.031 69.156 22.040 8.866 46.347 12.804 76.031 14.719 29.516 1.904 66.371 1.875 113.811 1.875h364.096c47.443 0 84.294 0.029 113.811-1.875 29.686-1.915 53.99-5.853 76.032-14.719 36.432-14.657 67.229-38.523 86.998-69.156 12.438-19.269 17.85-40.537 20.406-65.25 2.499-24.156 2.47-54.077 2.47-91.25v-467.062z" />
<glyph unicode="&#xe93e;" glyph-name="information-fill" d="M512 864c-82.278 0-162.707-24.398-231.117-70.109s-121.731-110.681-153.217-186.694c-31.486-76.016-39.724-159.658-23.673-240.355 16.052-80.694 55.671-154.819 113.85-212.998s132.303-97.798 212.998-113.85c80.698-16.051 164.342-7.814 240.355 23.674 76.013 31.485 140.986 84.803 186.694 153.216 45.712 68.41 70.109 148.838 70.109 231.117-0.115 110.294-43.981 216.038-121.971 294.028s-183.734 121.856-294.029 121.972zM496 672c9.494 0 18.774-2.815 26.669-8.090 7.891-5.274 14.045-12.771 17.677-21.541 3.635-8.772 4.586-18.423 2.733-27.732-1.853-9.312-6.426-17.866-13.136-24.579-6.714-6.71-15.267-11.283-24.579-13.136-9.309-1.853-18.96-0.902-27.731 2.733-8.771 3.632-16.269 9.786-21.542 17.677-5.274 7.894-8.090 17.174-8.090 26.669 0 12.73 5.056 24.94 14.058 33.941s21.213 14.059 33.942 14.059zM544 224c-16.973 0-33.251 6.742-45.254 18.746s-18.746 28.282-18.746 45.254v160c-8.486 0-16.627 3.373-22.627 9.373s-9.373 14.141-9.373 22.627c0 8.486 3.373 16.627 9.373 22.627s14.141 9.373 22.627 9.373c16.973 0 33.251-6.742 45.254-18.746s18.746-28.282 18.746-45.254v-160c8.486 0 16.627-3.373 22.627-9.373s9.373-14.141 9.373-22.627c0-8.486-3.373-16.627-9.373-22.627s-14.141-9.373-22.627-9.373z" />
<glyph unicode="&#xe93f;" glyph-name="image-square" d="M832 832h-640c-16.974 0-33.252-6.743-45.255-18.745s-18.745-28.281-18.745-45.255v-640c0-16.973 6.743-33.251 18.745-45.254s28.281-18.746 45.255-18.746h640c16.973 0 33.251 6.742 45.254 18.746s18.746 28.282 18.746 45.254v640c0 16.974-6.742 33.252-18.746 45.255s-28.282 18.745-45.254 18.745zM192 768h640v-309.52l-98.762 98.8c-12 11.994-28.272 18.73-45.238 18.73s-33.238-6.736-45.238-18.73l-429.282-429.28h-21.48v640zM832 128h-528l384 384 144-144v-240zM384 480c18.986 0 37.549 5.629 53.334 16.179 15.789 10.547 28.093 25.542 35.357 43.082 7.267 17.542 9.168 36.845 5.466 55.469-3.706 18.621-12.848 35.728-26.275 49.153-13.424 13.426-30.531 22.569-49.152 26.273-18.624 3.704-37.926 1.803-55.469-5.463-17.539-7.266-32.533-19.571-43.082-35.358s-16.179-34.349-16.179-53.334c0-25.459 10.114-49.878 28.118-67.882s42.423-28.118 67.882-28.118zM384 608c6.33 0 12.515-1.875 17.779-5.392 5.261-3.517 9.363-8.515 11.786-14.362s3.056-12.282 1.821-18.49c-1.235-6.208-4.282-11.91-8.758-16.384-4.474-4.477-10.176-7.523-16.384-8.758s-12.643-0.602-18.49 1.821c-5.846 2.422-10.845 6.525-14.362 11.786-3.517 5.264-5.392 11.45-5.392 17.779 0 8.486 3.373 16.627 9.373 22.627s14.141 9.373 22.627 9.373z" />
</font>
</defs>
</svg>
